[ create a new paste ] login | about

Link: http://codepad.org/00q3nX3U    [ raw code | fork ]

Plain Text, pasted on Dec 2:
foobar2000 1.6 / Dynamic Range Meter 1.1.1
log date: 2020-12-02 04:16:16

--------------------------------------------------------------------------------
Analyzed: Floyd Cramer / Super Country Hits
--------------------------------------------------------------------------------

DR         Peak         RMS     Duration Track
--------------------------------------------------------------------------------
DR13      -2.51 dB   -16.77 dB      2:21 01-Battle of New Orleans  
DR13      -1.86 dB   -17.34 dB      2:27 02-Is Anybody Goin to San Antone? 
DR13      -2.58 dB   -18.74 dB      2:47 03-Let it be Me -Je tappartiens 
DR13      -1.66 dB   -18.18 dB      2:38 04-Detroit City  
DR13      -2.31 dB   -19.26 dB      2:19 05-Lonely Street  
DR12      -1.60 dB   -16.53 dB      2:12 06-Sugarfoot Rag  
DR13      -2.49 dB   -17.16 dB      2:16 07-Oklahoma Hills  
DR12      -3.85 dB   -18.30 dB      2:08 08-Kiss an Angel Good Mornin 
DR12      -2.48 dB   -20.40 dB      2:51 09-Crystal Chandelier  
DR14      -2.48 dB   -18.98 dB      2:29 10-Its a Sin  
DR12      -1.68 dB   -19.58 dB      3:26 11-Green, Green Grass of Home  
DR12      -2.19 dB   -18.35 dB      2:14 12-The Young and the Restless  
DR11      -3.41 dB   -16.70 dB      2:40 13-Top of the World  
DR11      -3.07 dB   -16.87 dB      2:53 14-The Most Beautiful Girl 
DR12      -3.68 dB   -17.77 dB      2:46 15-Mercy, Mercy, Mercy  
DR11      -4.33 dB   -18.93 dB      2:23 16-The Star Spangled Banner  
DR10      -4.96 dB   -17.82 dB      2:50 17-Behind Closed Doors  
DR11      -3.16 dB   -17.04 dB      2:25 18-Boogie, Boogie, Boogie  
DR12      -3.75 dB   -19.71 dB      2:26 19-Laidback  
DR10      -2.10 dB   -16.41 dB      2:22 20-Theme from a Dream  
DR12      -2.52 dB   -16.65 dB      2:31 21-Rockin On  
--------------------------------------------------------------------------------

Number of tracks:  21
Official DR value: DR12

Samplerate:        88200 Hz
Channels:          2
Bits per sample:   24
Bitrate:           2624 kbps
Codec:             FLAC
================================================================================




Create a new paste based on this one


Comments: