[ create a new paste ] login | about

Link: http://codepad.org/00unTLsu    [ raw code | fork ]

Plain Text, pasted on Jul 27:
[CUETools log; Date: 7/27/2016 5:46:36 PM; Version: 2.1.5]
[CTDB TOCID: t9ili189gLeAWLVfU0lmicUaP74-] found.
Track | CTDB Status
  1   | (2/2) Accurately ripped
  2   | (2/2) Accurately ripped
  3   | (2/2) Accurately ripped
  4   | (2/2) Accurately ripped
  5   | (2/2) Accurately ripped
  6   | (2/2) Accurately ripped
  7   | (2/2) Accurately ripped
  8   | (2/2) Accurately ripped
  9   | (2/2) Accurately ripped
 10   | (2/2) Accurately ripped
 11   | (2/2) Accurately ripped
 12   | (2/2) Accurately ripped
 13   | (2/2) Accurately ripped
 14   | (2/2) Accurately ripped
 15   | (2/2) Accurately ripped
 16   | (2/2) Accurately ripped
 17   | (2/2) Accurately ripped
[AccurateRip ID: 0023b8ab-01bf9b1a-040d4311] found.
Track   [  CRC   |   V2   ] Status
 01     [66b1c82f|3459f7d0] (0+1/1) Accurately ripped
 02     [2b3424ba|01b2435b] (0+1/1) Accurately ripped
 03     [3c2b34ed|5afbf741] (0+1/1) Accurately ripped
 04     [f52befbe|2b1397a6] (0+1/1) Accurately ripped
 05     [3beff567|c12a232e] (0+1/1) Accurately ripped
 06     [2456ce7a|876eb996] (0+1/1) Accurately ripped
 07     [91a23c7c|31525195] (0+1/1) Accurately ripped
 08     [7617b561|e282e770] (0+1/1) Accurately ripped
 09     [7b5a0d54|6de6bf90] (0+1/1) Accurately ripped
 10     [0d7ad72c|b6d5afb3] (0+1/1) Accurately ripped
 11     [fa1619d6|38ccf63f] (0+1/1) Accurately ripped
 12     [d7fb21b2|6a73fc41] (0+1/1) Accurately ripped
 13     [e74b6398|565858c5] (0+1/1) Accurately ripped
 14     [c033f39d|67a6703d] (0+1/1) Accurately ripped
 15     [3154b80f|5b915bef] (0+1/1) Accurately ripped
 16     [d4ba449d|ed1150b2] (0+1/1) Accurately ripped
 17     [b611fae8|4e7024c0] (0+1/1) Accurately ripped

Track Peak [ CRC32  ] [W/O NULL] [  LOG   ]
 --   99.0 [9B04E769] [68D8581A]   CRC32   
 01   99.0 [8C0CEAED] [DFA48A4B]           
 02   99.0 [779A2066] [22EC20DE]           
 03   99.0 [BCC89581] [A74449CF]           
 04   99.0 [4F55863F] [D83362F9]           
 05   99.0 [27DBF752] [C11043B3]           
 06   99.0 [25B5FF4B] [3E49EDE2]           
 07   99.0 [8DA04831] [BF9D8534]           
 08   99.0 [5752FFEE] [AC14E1C0]           
 09   99.0 [68178C1E] [915EA1B0]           
 10   99.0 [5900BCC0] [5452ED04]           
 11   99.0 [AC0F7815] [44481AA4]           
 12   99.0 [F6BDE829] [67D11D95]           
 13   97.5 [4A6085B8] [5C387953]           
 14   99.0 [F2E4945C] [8CA4384E]           
 15   99.0 [16E159C2] [1D782C12]           
 16   90.3 [117DDADD] [B30A1D55]           
 17   97.7 [C87D367A] [93ECDCFF]           



Create a new paste based on this one


Comments: