[ create a new paste ] login | about

Link: http://codepad.org/01VqGWty    [ raw code | fork ]

Plain Text, pasted on Feb 14:
Exact Audio Copy V1.1 from 23. June 2015

EAC extraction logfile from 18. February 2016, 15:24

Loggins & Messina / Sittin' In AF

Used drive  : PLEXTOR BD-R  PX-B950SA   Adapter: 1  ID: 1

Read mode               : Secure
Utilize accurate stream : Yes
Defeat audio cache      : Yes
Make use of C2 pointers : No

Read offset correction                      : 6
Overread into Lead-In and Lead-Out          : No
Fill up missing offset samples with silence : Yes
Delete leading and trailing silent blocks   : No
Null samples used in CRC calculations       : Yes
Used interface                              : Native Win32 interface for Win NT & 2000

Used output format : Internal WAV Routines
Sample format      : 44.100 Hz; 16 Bit; Stereo


TOC of the extracted CD

     Track |   Start  |  Length  | Start sector | End sector 
    ---------------------------------------------------------
        1  |  0:00.00 |  3:01.35 |         0    |    13609   
        2  |  3:01.35 |  4:16.74 |     13610    |    32883   
        3  |  7:18.34 |  4:47.50 |     32884    |    54458   
        4  | 12:06.09 | 11:18.10 |     54459    |   105318   
        5  | 23:24.19 |  3:19.31 |    105319    |   120274   
        6  | 26:43.50 |  4:25.57 |    120275    |   140206   
        7  | 31:09.32 |  2:49.73 |    140207    |   152954   
        8  | 33:59.30 |  8:18.07 |    152955    |   190311   
        9  | 42:17.37 |  3:10.46 |    190312    |   204607   


Range status and errors

Selected range

     Filename C:\Loggins & Messina\1971 Sittin' In (Hybrid SACD Audio Fidelity 2016)\Loggins & Messina - Sittin' In AF.wav

     Peak level 90.2 %
     Extraction speed 3.5 X
     Range quality 100.0 %
     Test CRC 4034841B
     Copy CRC 4034841B
     Copy OK

No errors occurred

 
AccurateRip summary
 
Track  1  not present in database
Track  2  not present in database
Track  3  not present in database
Track  4  not present in database
Track  5  not present in database
Track  6  not present in database
Track  7  not present in database
Track  8  not present in database
Track  9  not present in database
 
None of the tracks are present in the AccurateRip database

End of status report

---- CUETools DB Plugin V2.1.6

[CTDB TOCID: Vl.m8FAMco3a3XYO_EbM9jwHip0-] found
Submit result: Vl.m8FAMco3a3XYO_EbM9jwHip0- has been confirmed
Track | CTDB Status
  1   | (5/5) Accurately ripped
  2   | (5/5) Accurately ripped
  3   | (5/5) Accurately ripped
  4   | (5/5) Accurately ripped
  5   | (5/5) Accurately ripped
  6   | (5/5) Accurately ripped
  7   | (5/5) Accurately ripped
  8   | (5/5) Accurately ripped
  9   | (5/5) Accurately ripped


==== Log checksum 17BC6D1840D48BA9E740365F01DC741C218B4BCDE3E018B0F3950808D0D809ED ====



Create a new paste based on this one


Comments: