[ create a new paste ] login | about

Link: http://codepad.org/0FeBRxhx    [ raw code | fork ]

Plain Text, pasted on Nov 22:
foobar2000 1.3.10 / Dynamic Range Meter 1.1.1
log date: 2016-11-21 20:06:52

--------------------------------------------------------------------------------
Analyzed: King Crimson / Additional Tracks (Stereo 24-96)
--------------------------------------------------------------------------------

DR         Peak         RMS     Duration Track
--------------------------------------------------------------------------------
DR9       -2.42 dB   -13.45 dB      0:52 01-Selection Of Adrian's Vocal Loops
DR11      -0.23 dB   -13.40 dB      8:28 02-The Sheltering Sky (Alternative Mix Steven Wilson)
DR10      -0.05 dB   -11.98 dB      6:32 03-Thela Hun Ginjeet (Alternative Mix Steven Wilson)
DR8       -0.09 dB   -10.09 dB      8:01 04-The Terring Of Thela Hun Ginjeet (From Tourbox)
DR11       0.00 dB   -13.29 dB      5:04 05-Elephant Talk (12'' Dance Remix)
--------------------------------------------------------------------------------

Number of tracks:  5
Official DR value: DR10

Samplerate:        96000 Hz
Channels:          2
Bits per sample:   24
Bitrate:           2934 kbps
Codec:             FLAC
================================================================================




foobar2000 1.3.10 / Dynamic Range Meter 1.1.1
log date: 2016-11-21 20:11:53

--------------------------------------------------------------------------------
Analyzed: King Crimson / Discipline (2011 Mix 5.1 Surround 24-96)
--------------------------------------------------------------------------------

DR         Peak         RMS     Duration Track
--------------------------------------------------------------------------------
DR14      -0.59 dB   -17.65 dB      4:43 01-Elephant Talk
DR12      -0.23 dB   -16.64 dB      5:08 02-Frame By Frame
DR14      -0.35 dB   -18.83 dB      3:47 03-Matte Kudasai
DR13       0.00 dB   -16.26 dB      4:34 04-Indiscipline
DR13      -0.15 dB   -16.37 dB      6:26 05-Thela Hun Ginjeet
DR14      -0.35 dB   -20.16 dB      8:23 06-The Sheltering Sky
DR14      -0.17 dB   -17.43 dB      5:03 07-Discipline
--------------------------------------------------------------------------------

Number of tracks:  7
Official DR value: DR13

Samplerate:        96000 Hz
Channels:          6
Bits per sample:   24
Bitrate:           6545 kbps
Codec:             FLAC
================================================================================




foobar2000 1.3.10 / Dynamic Range Meter 1.1.1
log date: 2016-11-21 20:15:11

--------------------------------------------------------------------------------
Analyzed: King Crimson / Discipline (2011 Mix Stereo 24-96)
--------------------------------------------------------------------------------

DR         Peak         RMS     Duration Track
--------------------------------------------------------------------------------
DR9       -0.30 dB   -11.16 dB      4:43 01-Elephant Talk
DR7       -0.30 dB    -9.41 dB      5:08 02-Frame By Frame
DR9       -0.30 dB   -10.93 dB      3:47 03-Matte Kudasai
DR8       -0.30 dB   -10.52 dB      4:34 04-Indiscipline
DR9       -0.30 dB   -10.72 dB      6:26 05-Thela Hun Ginjeet
DR11      -0.30 dB   -13.50 dB      8:23 06-The Sheltering Sky
DR11      -0.30 dB   -13.30 dB      5:03 07-Discipline
--------------------------------------------------------------------------------

Number of tracks:  7
Official DR value: DR9

Samplerate:        96000 Hz
Channels:          2
Bits per sample:   24
Bitrate:           2676 kbps
Codec:             FLAC
================================================================================




foobar2000 1.3.10 / Dynamic Range Meter 1.1.1
log date: 2016-11-21 20:19:42

--------------------------------------------------------------------------------
Analyzed: King Crimson / Discipline (Original Mix Stereo 24-96)
--------------------------------------------------------------------------------

DR         Peak         RMS     Duration Track
--------------------------------------------------------------------------------
DR11      -0.12 dB   -13.57 dB      4:43 01-Elephant Talk
DR10      -0.12 dB   -12.43 dB      5:08 02-Frame By Frame
DR10      -0.12 dB   -13.79 dB      3:48 03-Matte Kudasai
DR10      -0.12 dB   -12.00 dB      4:33 04-Indiscipline
DR9       -0.12 dB   -11.03 dB      6:26 05-Thela Hun Ginjeet
DR12      -0.13 dB   -15.29 dB      8:23 06-The Sheltering Sky
DR11      -0.12 dB   -13.51 dB      5:10 07-Discipline
DR11      -0.16 dB   -14.10 dB      3:54 08-Matte Kudasai (Alternate Take) / Bonus
--------------------------------------------------------------------------------

Number of tracks:  8
Official DR value: DR11

Samplerate:        96000 Hz
Channels:          2
Bits per sample:   24
Bitrate:           2656 kbps
Codec:             FLAC
================================================================================




Create a new paste based on this one


Comments: