[ create a new paste ] login | about

Link: http://codepad.org/0HIIW4Zf    [ raw code | fork ]

Plain Text, pasted on Feb 15:
foobar2000 1.5 / Dynamic Range Meter 1.1.1
log date: 2020-02-15 06:06:54

--------------------------------------------------------------------------------
Analyzed: JOHNNY CASH / AT FOLSOM PRISON
--------------------------------------------------------------------------------

DR         Peak         RMS     Duration Track
--------------------------------------------------------------------------------
DR12      -9.23 dB   -26.45 dB      2:42 01-Folsom Prison Blues
DR12     -10.15 dB   -28.24 dB      1:24 02-Busted
DR13     -10.56 dB   -29.97 dB      3:05 03-Dark As The Dungeon
DR11      -9.28 dB   -27.82 dB      1:38 04-I Still Miss Someone
DR12      -9.85 dB   -27.67 dB      3:01 05-Cocaine Blues
DR13      -9.39 dB   -28.17 dB      3:31 06-25 Minutes To Go
DR12     -10.00 dB   -27.84 dB      3:01 07-Orange Blossom Special
DR14     -10.56 dB   -31.73 dB      3:57 08-The Long Black Veil
DR14     -11.73 dB   -32.11 dB      2:11 09-Send A Picture Of Mother
DR13     -12.01 dB   -31.58 dB      1:37 10-The Wall
DR13     -11.69 dB   -31.30 dB      1:30 11-Dirty Old Egg-Suckin' Dog
DR14     -10.36 dB   -30.32 dB      2:17 12-Flushed From The Bathroom Of Your Heart
DR14     -10.43 dB   -31.21 dB      2:25 13-Joe Bean
DR13      -9.61 dB   -27.89 dB      3:12 14-Jackson
DR12     -10.34 dB   -28.60 dB      2:41 15-Give My Love To Rose
DR12      -9.88 dB   -28.58 dB      1:57 16-I Got Stripes
DR13      -9.69 dB   -28.98 dB      7:08 17-The Legend Of John Henry's Hammer
DR13     -10.42 dB   -30.07 dB      2:29 18-Green, Green Grass Of Home
DR13      -9.59 dB   -29.58 dB      6:02 19-Greystone Chapel
--------------------------------------------------------------------------------

Number of tracks:  19
Official DR value: DR13

Samplerate:        2822400 Hz / PCM Samplerate: 44100 Hz
Channels:          6
Bits per sample:   1
Bitrate:           16934 kbps
Codec:             DST64
================================================================================

--------------------------------------------------------------------------------
Analyzed: JOHNNY CASH / AT FOLSOM PRISON
--------------------------------------------------------------------------------

DR         Peak         RMS     Duration Track
--------------------------------------------------------------------------------
DR12      -6.00 dB   -20.42 dB      2:42 01-Folsom Prison Blues
DR13      -6.01 dB   -21.83 dB      1:24 02-Busted
DR13      -7.69 dB   -23.67 dB      3:05 03-Dark As The Dungeon
DR12      -6.46 dB   -21.82 dB      1:38 04-I Still Miss Someone
DR12      -7.00 dB   -21.31 dB      3:01 05-Cocaine Blues
DR13      -6.40 dB   -21.76 dB      3:31 06-25 Minutes To Go
DR12      -7.30 dB   -21.61 dB      3:01 07-Orange Blossom Special
DR13      -6.52 dB   -24.85 dB      3:57 08-The Long Black Veil
DR13      -6.73 dB   -24.03 dB      2:11 09-Send A Picture Of Mother
DR13      -7.20 dB   -23.49 dB      1:37 10-The Wall
DR13      -8.32 dB   -24.22 dB      1:30 11-Dirty Old Egg-Suckin' Dog
DR13      -7.51 dB   -23.31 dB      2:17 12-Flushed From The Bathroom Of Your Heart
DR12      -8.87 dB   -24.52 dB      2:25 13-Joe Bean
DR13      -6.53 dB   -21.54 dB      3:12 14-Jackson
DR12      -7.87 dB   -22.57 dB      2:41 15-Give My Love To Rose
DR12      -7.70 dB   -22.27 dB      1:57 16-I Got Stripes
DR12      -7.51 dB   -22.83 dB      7:08 17-The Legend Of John Henry's Hammer
DR13      -7.85 dB   -23.53 dB      2:29 18-Green, Green Grass Of Home
DR13      -6.13 dB   -22.73 dB      6:02 19-Greystone Chapel
--------------------------------------------------------------------------------

Number of tracks:  19
Official DR value: DR13

Samplerate:        2822400 Hz / PCM Samplerate: 44100 Hz
Channels:          2
Bits per sample:   1
Bitrate:           5645 kbps
Codec:             DST64
================================================================================




Create a new paste based on this one


Comments: