[ create a new paste ] login | about

Link: http://codepad.org/0P9In5Sc    [ raw code | fork ]

Plain Text, pasted on Dec 3:
foobar2000 1.2.2 / Dynamic Range Meter 1.1.1
log date: 2013-02-22 16:04:25

--------------------------------------------------------------------------------
Analyzed: Patrick Williams & Ultimate Mancini Orchestra, Joey DeFrancesco / Ultimate Mancini (Hybrid SACD) (1)
          Patrick Williams & Ultimate Mancini Orchestra, Michael Lang / Ultimate Mancini (Hybrid SACD) (2-3)
          Patrick Williams & Ultimate Mancini Orchestra, Monica Mancini, Kenny Rankin, Tom Scott / Ultimate Mancini (Hybrid SACD) (4)
          Patrick Williams & Ultimate Mancini Orchestra, Monica Mancini, Michael Lang / Ultimate Mancini (Hybrid SACD) (5)
          Patrick Williams & Ultimate Mancini Orchestra, Monica Mancini, Tom Scott / Ultimate Mancini (Hybrid SACD) (6)
          Patrick Williams & Ultimate Mancini Orchestra, Monica Mancini / Ultimate Mancini (Hybrid SACD) (7-13)
          Patrick Williams & Ultimate Mancini Orchestra, Plas Johnson, Gary Burton, Joey DeFrancesco / Ultimate Mancini (Hybrid SACD) (14)
          Patrick Williams & Ultimate Mancini Orchestra, Stevie Wonder, Take 6 / Ultimate Mancini (Hybrid SACD) (15)
          Patrick Williams & Ultimate Mancini Orchestra, Tom Scott / Ultimate Mancini (Hybrid SACD) (16)
          Patrick Williams & Ultimate Mancini Orchestra / Ultimate Mancini (Hybrid SACD) (17-18)
--------------------------------------------------------------------------------

DR         Peak         RMS     Duration Track
--------------------------------------------------------------------------------
DR12      -3.54 dB   -22.19 dB      2:47 12-Mr. Lucky
DR11      -7.96 dB   -27.12 dB      1:58 14-Movie Medley: Life In A Looking Glass
DR12      -6.10 dB   -25.99 dB      2:54 16-Movie Medley: It's Easy To Say
DR11      -6.00 dB   -22.95 dB      3:19 08-Peter Gunn Suite: Dreamsville
DR11      -8.04 dB   -27.58 dB      4:20 18-Soldier In The Rain
DR12      -5.33 dB   -22.78 dB      3:26 05-Moment To Moment
DR12      -4.18 dB   -23.03 dB      3:56 03-Two For The Road
DR10      -6.64 dB   -23.59 dB      4:15 06-Days Of Wine And Roses
DR11      -7.28 dB   -25.25 dB      2:42 09-Dear Heart
DR11      -6.06 dB   -24.18 dB      3:03 11-Anywhere The Heart Goes (Meggie's Theme)
DR11      -8.75 dB   -26.93 dB      4:42 13-Whistling Away The Dark
DR11      -5.36 dB   -23.90 dB      2:24 15-Movie Medley: Crazy World
DR11      -7.46 dB   -25.98 dB      3:09 17-Music On The Way
DR16      -0.01 dB   -23.55 dB      5:18 01-The Pink Panther Theme
DR11      -3.84 dB   -21.58 dB      3:10 04-Moon River
DR14      -0.30 dB   -21.27 dB      2:08 07-Peter Gunn Suite: Peter Gunn Theme
DR14      -0.75 dB   -22.43 dB      2:59 02-Charade
DR11      -3.77 dB   -21.24 dB      2:40 10-The Thorn Birds Theme
--------------------------------------------------------------------------------

Number of tracks:  18
Official DR value: DR12

Samplerate:        88200 Hz
Channels:          6
Bits per sample:   24
Bitrate:           6868 kbps
Codec:             FLAC
================================================================================




Create a new paste based on this one


Comments: