[ create a new paste ] login | about

Link: http://codepad.org/0U48q9UU    [ raw code | fork ]

Plain Text, pasted on Jul 23:
foobar2000 1.3.10 / Dynamic Range Meter 1.1.1
log date: 2016-07-03 00:48:36

--------------------------------------------------------------------------------
Analyzed: Hesperion XXI & Jordi Savall / Orient - Occident II - Hommage à la Syrie (Hybrid SACD)
--------------------------------------------------------------------------------

DR         Peak         RMS     Duration Track
--------------------------------------------------------------------------------
DR12      -7.25 dB   -23.25 dB      2:38 01-Ahla Zahra
DR12      -9.73 dB   -27.72 dB      4:20 02-Samai maqam Bayati (Syrie)
DR8      -13.04 dB   -28.59 dB      2:09 03-Creire m'en fach
DR14      -3.21 dB   -24.92 dB      4:11 04-Ô Aube Ya fajr (Syrie)
DR12      -6.68 dB   -24.88 dB      3:29 05-Shaouia (Syrie)
DR15      -7.23 dB   -29.43 dB      3:28 06-Improvisation Oud
DR14      -3.89 dB   -23.95 dB      7:52 07-Mawal Sab'awi - 'Ala Al-'aqiqa - Beiny wa Beinak
DR13      -3.53 dB   -22.63 dB      4:16 08-Istampitta: isabella
DR13      -5.53 dB   -24.69 dB      4:11 09-Ce Brun Hal asmar (Syrie)
DR13      -5.09 dB   -25.71 dB      3:35 10-Trotto
DR13      -6.56 dB   -26.53 dB      3:48 11-Ya Mariam el bekr (Syrie)
DR13      -5.20 dB   -24.65 dB      3:58 12-Ghazal
DR15      -3.09 dB   -26.37 dB      4:38 13-Angoisse (Qalaq (Syrie)
DR13      -5.05 dB   -24.51 dB      3:43 14-Cantiga 41: Virgen, madre de nostro Sennor
DR14      -3.25 dB   -23.32 dB      9:00 15-Hija mia - Et dodim kala (Israël)
DR12      -7.36 dB   -26.15 dB      4:34 16-Una Pastora
DR13      -5.08 dB   -25.50 dB      5:08 17-A Damas (Syrie)
DR12     -14.91 dB   -32.65 dB      3:24 18-Improvisation Ney (Départ)
--------------------------------------------------------------------------------

Number of tracks:  18
Official DR value: DR13

Samplerate:        88200 Hz
Channels:          6
Bits per sample:   24
Bitrate:           4858 kbps
Codec:             FLAC
================================================================================




Create a new paste based on this one


Comments: