[ create a new paste ] login | about

Link: http://codepad.org/0WBDXzEm    [ raw code | fork ]

Plain Text, pasted on Mar 4:
foobar2000 1.5 / Dynamic Range Meter 1.1.1
log date: 2020-03-04 17:06:53

--------------------------------------------------------------------------------
Analyzed: The Mystic Moods Orchestra / Stormy Weekend
--------------------------------------------------------------------------------

DR         Peak         RMS     Duration Track
--------------------------------------------------------------------------------
DR14      -0.11 dB   -18.51 dB      3:44 01-Love Is Blue
DR13      -0.05 dB   -16.65 dB      4:08 02-If You Go Away
DR11      -0.91 dB   -15.40 dB      2:13 03-Waltz For Tricia
DR9       -2.23 dB   -17.13 dB      1:01 04-Theme From Stormy Weekend (Interlude)
DR12      -1.12 dB   -16.25 dB      3:55 05-Lovers Lullaby
DR12      -2.03 dB   -18.83 dB      3:55 06-Visions
DR12      -1.48 dB   -18.37 dB      4:49 07-Come Saturday Morning
DR12      -1.23 dB   -16.93 dB      3:12 08-I Can't Get Away From You
DR13      -1.58 dB   -19.12 dB      2:57 09-Ne Dis Rien (Say No More)
DR11      -4.35 dB   -20.04 dB      2:55 10-Theme From Stormy Weekend
DR13      -3.06 dB   -24.20 dB      1:49 11-4:22 A.M.
DR14      -0.08 dB   -17.32 dB      3:47 12-Monday, Monday
--------------------------------------------------------------------------------

Number of tracks:  12
Official DR value: DR12

Samplerate:        44100 Hz
Channels:          2
Bits per sample:   16
Bitrate:           868 kbps
Codec:             FLAC
================================================================================




Create a new paste based on this one


Comments: