[ create a new paste ] login | about

Link: http://codepad.org/0X3568Kf    [ raw code | fork ]

Plain Text, pasted on Jun 22:
foobar2000 1.5 / Dynamic Range Meter 1.1.1
log date: 2020-06-22 19:24:56

--------------------------------------------------------------------------------
Analyzed: Neil Young / Homegrown
--------------------------------------------------------------------------------

DR         Peak         RMS     Duration Track
--------------------------------------------------------------------------------
DR17      -0.34 dB   -20.42 dB      3:33 01-Separate Ways
DR14      -1.03 dB   -18.76 dB      2:49 02-Try
DR11      -6.28 dB   -21.80 dB      1:41 03-Mexico
DR11      -4.24 dB   -18.60 dB      2:17 04-Love Is A Rose
DR13      -2.01 dB   -17.74 dB      2:48 05-Homegrown
DR11      -9.83 dB   -26.28 dB      2:58 06-Florida
DR11      -9.35 dB   -24.85 dB      2:12 07-Kansas
DR13      -0.76 dB   -16.98 dB      4:51 08-We Don't Smoke It No More
DR13      -3.31 dB   -20.56 dB      3:14 09-White Line
DR12      -0.70 dB   -15.37 dB      3:59 10-Vacancy
DR11      -5.51 dB   -22.44 dB      2:12 11-Little Wing
DR12      -4.63 dB   -19.84 dB      2:48 12-Star Of Bethlehem
--------------------------------------------------------------------------------

Number of tracks:  12
Official DR value: DR12

Samplerate:        192000 Hz
Channels:          2
Bits per sample:   24
Bitrate:           5294 kbps
Codec:             FLAC
================================================================================


foobar2000 1.5 / Dynamic Range Meter 1.1.1
log date: 2020-06-22 19:24:38

--------------------------------------------------------------------------------
Analyzed: Neil Young / Homegrown
--------------------------------------------------------------------------------

DR         Peak         RMS     Duration Track
--------------------------------------------------------------------------------
DR17      -0.34 dB   -20.42 dB      3:33 01-Separate Ways
DR14      -1.03 dB   -18.76 dB      2:49 02-Try
DR11      -6.28 dB   -21.80 dB      1:41 03-Mexico
DR11      -4.25 dB   -18.60 dB      2:17 04-Love Is A Rose
DR13      -2.02 dB   -17.74 dB      2:48 05-Homegrown
DR11      -9.83 dB   -26.28 dB      2:58 06-Florida
DR11      -9.36 dB   -24.85 dB      2:12 07-Kansas
DR13      -0.77 dB   -16.98 dB      4:51 08-We Don't Smoke It No More
DR13      -3.31 dB   -20.56 dB      3:14 09-White Line
DR12      -0.70 dB   -15.37 dB      3:59 10-Vacancy
DR11      -5.51 dB   -22.44 dB      2:12 11-Little Wing
DR12      -4.62 dB   -19.84 dB      2:48 12-Star Of Bethlehem
--------------------------------------------------------------------------------

Number of tracks:  12
Official DR value: DR12

Samplerate:        96000 Hz
Channels:          2
Bits per sample:   24
Bitrate:           2771 kbps
Codec:             FLAC
================================================================================




Create a new paste based on this one


Comments: