[ create a new paste ] login | about

Link: http://codepad.org/0c25VSjn    [ raw code | fork ]

Plain Text, pasted on Jun 20:
foobar2000 1.3.17 / Dynamic Range Meter 1.1.1
log date: 2018-06-20 11:41:38

--------------------------------------------------------------------------------
Analyzed: The Moody Blues / Days Of Future Passed  {MFSL 1-042}
--------------------------------------------------------------------------------

DR         Peak         RMS     Duration Track
--------------------------------------------------------------------------------
DR13      -1.61 dB   -19.53 dB      5:52 01-The Day Begins: The Day Begins / Morning Glory
DR14      -0.30 dB   -17.32 dB      3:49 02-Dawn: Dawn Is A Feeling
DR11      -2.39 dB   -16.22 dB      3:56 03-The Morning: Another Morning
DR11      -0.20 dB   -14.78 dB      5:31 04-Lunch Break: Peak Hour
DR12      -0.47 dB   -16.12 dB      8:24 05-The Afternoon: Forever Afternoon (Tuesday?) / (Evening) Time To Get Away
DR11      -2.65 dB   -17.55 dB      6:41 06-Evening: The Sun Set / Twilight Time
DR11      -4.78 dB   -19.44 dB      7:29 07-The Night: Nights In White Satin / Late Lament
--------------------------------------------------------------------------------

Number of tracks:  7
Official DR value: DR12

Samplerate:        96000 Hz
Channels:          2
Bits per sample:   24
Bitrate:           2766 kbps
Codec:             FLAC
================================================================================




Create a new paste based on this one


Comments: