[ create a new paste ] login | about

Link: http://codepad.org/0cGLQGFY    [ raw code | fork ]

Plain Text, pasted on Nov 28:
Exact Audio Copy V0.99 prebeta 5 from 4. May 2009

EAC extraction logfile from 18. April 2010, 1:06

Johnny Winter / Johnny Winter And [DCC DZS-194]

Used drive  : SONY    CDRW/DVD CRX835E   Adapter: 1  ID: 0

Read mode               : Secure
Utilize accurate stream : Yes
Defeat audio cache      : Yes
Make use of C2 pointers : No

Read offset correction                      : 6
Overread into Lead-In and Lead-Out          : No
Fill up missing offset samples with silence : Yes
Delete leading and trailing silent blocks   : No
Null samples used in CRC calculations       : Yes
Used interface                              : Native Win32 interface for Win NT & 2000
Gap handling                                : Appended to previous track

Used output format              : User Defined Encoder
Selected bitrate                : 768 kBit/s
Quality                         : High
Add ID3 tag                     : No
Command line compressor         : C:\Program Files\Exact Audio Copy\Flac\flac.exe
Additional command line options : -8 -V -T "ARTIST=%a" -T "TITLE=%t" -T "ALBUM=%g" -T "DATE=%y" -T "TRACKNUMBER=%n" -T "TOTALTRACKS=%x" -T "GENRE=%m" -T "ALBUM ARTIST=%v" -T "ALBUMARTIST=%v" -T "COMMENT=EAC V0.99 prebeta 5, Secure Mode, Test & Copy, Accurat


TOC of the extracted CD

     Track |   Start  |  Length  | Start sector | End sector 
    ---------------------------------------------------------
        1  |  0:00.00 |  3:32.12 |         0    |    15911   
        2  |  3:32.12 |  3:33.00 |     15912    |    31886   
        3  |  7:05.12 |  4:40.00 |     31887    |    52886   
        4  | 11:45.12 |  3:35.13 |     52887    |    69024   
        5  | 15:20.25 |  3:28.62 |     69025    |    84686   
        6  | 18:49.12 |  3:39.00 |     84687    |   101111   
        7  | 22:28.12 |  4:22.00 |    101112    |   120761   
        8  | 26:50.12 |  3:40.00 |    120762    |   137261   
        9  | 30:30.12 |  3:19.00 |    137262    |   152186   
       10  | 33:49.12 |  3:36.00 |    152187    |   168386   
       11  | 37:25.12 |  4:55.13 |    168387    |   190524   


Track  1

     Filename Q:\Johnny Winter\(1970) Johnny Winter - Johnny Winter And\Johnny Winter - Johnny Winter And (1970) [FLAC] {DCC Hoffman Remaster}\01 - Guess I'll Go Away.wav

     Pre-gap length  0:00:02.00

     Peak level 100.0 %
     Track quality 99.9 %
     Test CRC 4ED1C1C3
     Copy CRC 4ED1C1C3
     Track not present in AccurateRip database
     Copy OK

Track  2

     Filename Q:\Johnny Winter\(1970) Johnny Winter - Johnny Winter And\Johnny Winter - Johnny Winter And (1970) [FLAC] {DCC Hoffman Remaster}\02 - Ain't That A Kindness.wav

     Pre-gap length  0:00:04.82

     Peak level 84.9 %
     Track quality 100.0 %
     Test CRC F37E33BA
     Copy CRC F37E33BA
     Track not present in AccurateRip database
     Copy OK

Track  3

     Filename Q:\Johnny Winter\(1970) Johnny Winter - Johnny Winter And\Johnny Winter - Johnny Winter And (1970) [FLAC] {DCC Hoffman Remaster}\03 - No Time To Live.wav

     Pre-gap length  0:00:05.82

     Peak level 73.8 %
     Track quality 100.0 %
     Test CRC A47FF816
     Copy CRC A47FF816
     Track not present in AccurateRip database
     Copy OK

Track  4

     Filename Q:\Johnny Winter\(1970) Johnny Winter - Johnny Winter And\Johnny Winter - Johnny Winter And (1970) [FLAC] {DCC Hoffman Remaster}\04 - Rock And Roll,Hoochie Koo.wav

     Pre-gap length  0:00:04.82

     Peak level 100.0 %
     Track quality 99.9 %
     Test CRC C3B00546
     Copy CRC C3B00546
     Track not present in AccurateRip database
     Copy OK

Track  5

     Filename Q:\Johnny Winter\(1970) Johnny Winter - Johnny Winter And\Johnny Winter - Johnny Winter And (1970) [FLAC] {DCC Hoffman Remaster}\05 - Am I Here .wav

     Pre-gap length  0:00:05.00

     Peak level 96.8 %
     Track quality 100.0 %
     Test CRC 197C0467
     Copy CRC 197C0467
     Track not present in AccurateRip database
     Copy OK

Track  6

     Filename Q:\Johnny Winter\(1970) Johnny Winter - Johnny Winter And\Johnny Winter - Johnny Winter And (1970) [FLAC] {DCC Hoffman Remaster}\06 - Look Up.wav

     Pre-gap length  0:00:04.82

     Peak level 92.6 %
     Track quality 100.0 %
     Test CRC EEF0033B
     Copy CRC EEF0033B
     Track not present in AccurateRip database
     Copy OK

Track  7

     Filename Q:\Johnny Winter\(1970) Johnny Winter - Johnny Winter And\Johnny Winter - Johnny Winter And (1970) [FLAC] {DCC Hoffman Remaster}\07 - Prodigal Son.wav

     Pre-gap length  0:00:05.82

     Peak level 100.0 %
     Track quality 99.9 %
     Test CRC F59AA73F
     Copy CRC F59AA73F
     Track not present in AccurateRip database
     Copy OK

Track  8

     Filename Q:\Johnny Winter\(1970) Johnny Winter - Johnny Winter And\Johnny Winter - Johnny Winter And (1970) [FLAC] {DCC Hoffman Remaster}\08 - On The Limb.wav

     Pre-gap length  0:00:04.82

     Peak level 99.2 %
     Track quality 100.0 %
     Test CRC 5C2B6927
     Copy CRC 5C2B6927
     Track not present in AccurateRip database
     Copy OK

Track  9

     Filename Q:\Johnny Winter\(1970) Johnny Winter - Johnny Winter And\Johnny Winter - Johnny Winter And (1970) [FLAC] {DCC Hoffman Remaster}\09 - Let The Music Play.wav

     Pre-gap length  0:00:06.82

     Peak level 95.9 %
     Track quality 100.0 %
     Test CRC 605445B9
     Copy CRC 605445B9
     Track not present in AccurateRip database
     Copy OK

Track 10

     Filename Q:\Johnny Winter\(1970) Johnny Winter - Johnny Winter And\Johnny Winter - Johnny Winter And (1970) [FLAC] {DCC Hoffman Remaster}\10 - Nothing Left.wav

     Pre-gap length  0:00:04.89

     Peak level 100.0 %
     Track quality 100.0 %
     Test CRC 56AA4B34
     Copy CRC 56AA4B34
     Track not present in AccurateRip database
     Copy OK

Track 11

     Filename Q:\Johnny Winter\(1970) Johnny Winter - Johnny Winter And\Johnny Winter - Johnny Winter And (1970) [FLAC] {DCC Hoffman Remaster}\11 - Funky Music.wav

     Pre-gap length  0:00:05.86

     Peak level 100.0 %
     Track quality 100.0 %
     Test CRC 526B7A74
     Copy CRC 526B7A74
     Track not present in AccurateRip database
     Copy OK


None of the tracks are present in the AccurateRip database

No errors occurred

End of status report



Create a new paste based on this one


Comments: