[ create a new paste ] login | about

Link: http://codepad.org/0cS6yKFu    [ raw code | fork ]

Plain Text, pasted on Nov 8:
foobar2000 1.4.6 / Dynamic Range Meter 1.1.1
log date: 2019-11-07 20:06:12

--------------------------------------------------------------------------------
Analyzed: John Fogerty / 50 Year Trip: Live at Red Rocks
--------------------------------------------------------------------------------

DR         Peak         RMS     Duration Track
--------------------------------------------------------------------------------
DR9       -1.00 dB   -10.64 dB      3:31 01-Born On The Bayou (Live at Red Rocks)
DR9       -1.00 dB   -10.46 dB      3:26 02-Green River (Live At Red Rocks)
DR9       -1.02 dB   -10.77 dB      2:45 03-Lookin' Out My Back Door (Live At Red Rocks)
DR9       -1.05 dB   -10.78 dB      3:44 04-Susie Q (Live at Red Rocks)
DR9       -1.00 dB   -10.84 dB      2:30 05-Who'll Stop the Rain (Live at Red Rocks)
DR9       -1.08 dB   -10.66 dB      2:12 06-Hey Tonight (Live at Red Rocks)
DR9       -1.08 dB   -10.57 dB      2:25 07-Up Around the Bend (Live at Red Rocks)
DR8       -1.06 dB   -10.34 dB      3:09 08-Rock and Roll Girls (Live at Red Rocks)
DR7       -1.00 dB    -9.60 dB      8:17 09-I Heard It Through The Grapevine (Live at Red Rocks)
DR8       -1.00 dB   -10.72 dB      3:44 10-Long As I Can See The Light (Live at Red Rocks)
DR9       -1.00 dB   -10.87 dB      3:22 11-Run Through The Jungle (Live at Red Rocks)
DR9       -1.00 dB   -11.09 dB      6:39 12-Keep On Chooglin' (Live at Red Rocks)
DR9       -1.00 dB   -10.82 dB      2:31 13-Have You Ever Seen The Rain? (Live at Red Rocks)
DR9       -1.00 dB   -10.59 dB      2:42 14-Down On The Corner (Live at Red Rocks)
DR9       -1.00 dB   -11.56 dB      3:55 15-Centerfield (Live at Red Rocks)
DR9       -1.07 dB   -11.22 dB      5:34 16-The Old Man Down The Road (Live at Red Rocks)
DR8       -1.00 dB   -10.16 dB      2:49 17-Fortunate Son (Live at Red Rocks)
DR9       -1.00 dB   -10.54 dB      2:10 18-Bad Moon Rising (Live at Red Rocks)
DR8       -1.00 dB   -10.27 dB      3:38 19-Proud Mary (Live at Red Rocks)
--------------------------------------------------------------------------------

Number of tracks:  19
Official DR value: DR9

Samplerate:        44100 Hz
Channels:          2
Bits per sample:   16
Bitrate:           950 kbps
Codec:             FLAC
================================================================================




Create a new paste based on this one


Comments: