[ create a new paste ] login | about

Link: http://codepad.org/0ckkMN1h    [ raw code | fork ]

Plain Text, pasted on Jun 17:
[CUETools log; Date: 6/16/2016 9:23:30 PM; Version: 2.1.5]
[CTDB TOCID: aEmd6OE.eCTOer.ucGEBkvTJiFM-] found.
Track | CTDB Status
  1   | (39/39) Accurately ripped
  2   | (39/39) Accurately ripped
  3   | (39/39) Accurately ripped
  4   | (39/39) Accurately ripped
  5   | (39/39) Accurately ripped
  6   | (39/39) Accurately ripped
  7   | (39/39) Accurately ripped
  8   | (39/39) Accurately ripped
  9   | (39/39) Accurately ripped
 10   | (39/39) Accurately ripped
[AccurateRip ID: 0011fae1-008e7900-790ac00a] found.
Track   [  CRC   |   V2   ] Status
 01     [e42cceb4|5b237f6b] (08+62/72) Accurately ripped
 02     [0912888a|76381cc9] (08+62/72) Accurately ripped
 03     [b9087b1e|84e46efc] (07+62/71) Accurately ripped
 04     [d5a147ff|7e17ac53] (08+62/72) Accurately ripped
 05     [4f4b8752|85e5cbef] (08+62/72) Accurately ripped
 06     [4c43a8e5|a078ef26] (07+62/71) Accurately ripped
 07     [265a6a99|e7dccf99] (07+62/71) Accurately ripped
 08     [1fc81b4b|a63f9588] (07+62/71) Accurately ripped
 09     [07e6f876|10102a77] (07+62/71) Accurately ripped
 10     [56266373|0ba81996] (07+62/71) Accurately ripped
Offsetted by 42:
 01     [2f715fa2] (00/72) No match (V2 was not tested)
 02     [9f7c9204] (00/72) No match (V2 was not tested)
 03     [ed57379d] (00/71) No match (V2 was not tested)
 04     [c7f0099d] (00/72) No match (V2 was not tested)
 05     [f9832e1f] (00/72) No match (V2 was not tested)
 06     [5821a01b] (00/71) No match (V2 was not tested)
 07     [d347f7dd] (00/71) No match (V2 was not tested)
 08     [89c32f8b] (00/71) No match (V2 was not tested)
 09     [3dcc6a22] (00/71) No match (V2 was not tested)
 10     [419ee6ab] (00/71) No match (V2 was not tested)

Track Peak [ CRC32  ] [W/O NULL] [  LOG   ]
 --   98.5 [47784AF9] [666AFBA1]   CRC32   
 01   97.7 [A8F44C34] [EFF1812A]           
 02   98.5 [38E39735] [C361C296]           
 03   96.2 [B82F10B8] [3CAA9F5E]           
 04   95.7 [BC61A0C8] [A490ABBB]           
 05   79.2 [9BD2EF95] [FF256BA6]           
 06   97.5 [C756D305] [0D1A3D6F]           
 07   97.2 [6EFD1282] [BE61E550]           
 08   95.6 [961AB84F] [BAE8726B]           
 09   97.5 [5325DEC1] [6BC9032C]           
 10   64.2 [3C7ABBD1] [9CB3E041]           



Create a new paste based on this one


Comments: