[ create a new paste ] login | about

Link: http://codepad.org/0e6YaGKa    [ raw code | fork ]

Plain Text, pasted on Mar 1:
Exact Audio Copy V1.1 from 23. June 2015

EAC extraction logfile from 7. August 2015, 1:03

Various Artists / Pure... electronic 80s (CD 3)

Used drive  : PIONEER BD-RW   BDR-206   Adapter: 1  ID: 0

Read mode               : Secure
Utilize accurate stream : Yes
Defeat audio cache      : Yes
Make use of C2 pointers : No

Read offset correction                      : 667
Overread into Lead-In and Lead-Out          : No
Fill up missing offset samples with silence : Yes
Delete leading and trailing silent blocks   : No
Null samples used in CRC calculations       : Yes
Used interface                              : Native Win32 interface for Win NT & 2000

Used output format              : User Defined Encoder
Selected bitrate                : 768 kBit/s
Quality                         : High
Add ID3 tag                     : No
Command line compressor         : C:\Program Files (x86)\Exact Audio Copy\Flac\flac.exe
Additional command line options : -8 -V -T "TITLE=%title%" -T "ARTIST=%artist%" -T "ALBUMARTIST=%albumartist%" -T "ALBUM=%albumtitle%" -T "DATE=%year%" -T "TRACKNUMBER=%tracknr%" -T "TRACKTOTAL=%numtracks%" -T "GENRE=%genre%" -T "COMMENT=%comment%" -T "PERFORMER=%albuminterpret%" -T "COMPOSER=%composer%" %source% -o %dest%


TOC of the extracted CD

     Track |   Start  |  Length  | Start sector | End sector 
    ---------------------------------------------------------
        1  |  0:00.00 |  3:15.47 |         0    |    14671   
        2  |  3:15.47 |  4:13.45 |     14672    |    33691   
        3  |  7:29.17 |  4:23.39 |     33692    |    53455   
        4  | 11:52.56 |  3:28.66 |     53456    |    69121   
        5  | 15:21.47 |  3:53.40 |     69122    |    86636   
        6  | 19:15.12 |  3:39.30 |     86637    |   103091   
        7  | 22:54.42 |  3:45.48 |    103092    |   120014   
        8  | 26:40.15 |  4:08.67 |    120015    |   138681   
        9  | 30:49.07 |  4:24.09 |    138682    |   158490   
       10  | 35:13.16 |  3:59.30 |    158491    |   176445   
       11  | 39:12.46 |  3:42.04 |    176446    |   193099   
       12  | 42:54.50 |  3:48.49 |    193100    |   210248   
       13  | 46:43.24 |  3:42.49 |    210249    |   226947   
       14  | 50:25.73 |  4:14.20 |    226948    |   246017   
       15  | 54:40.18 |  3:51.02 |    246018    |   263344   
       16  | 58:31.20 |  2:55.37 |    263345    |   276506   


Range status and errors

Selected range

     Filename D:\Сборники (Flac)\VA - Pure... electronic 80s (2014)4CD[Flac+.cue]\CD3\Various Artists - Pure... electronic 80s (CD 3).wav

     Peak level 99.7 %
     Extraction speed 7.6 X
     Range quality 100.0 %
     Test CRC A0525346
     Copy CRC A0525346
     Copy OK

No errors occurred

 
AccurateRip summary
 
Track  1  accurately ripped (confidence 4)  [ADFE7931]  (AR v2)
Track  2  accurately ripped (confidence 4)  [AFAB1668]  (AR v2)
Track  3  accurately ripped (confidence 4)  [7A9CBBF7]  (AR v2)
Track  4  accurately ripped (confidence 4)  [F771E6C9]  (AR v2)
Track  5  accurately ripped (confidence 4)  [A45CBF61]  (AR v2)
Track  6  accurately ripped (confidence 4)  [BA4EBDAC]  (AR v2)
Track  7  accurately ripped (confidence 4)  [B3E403D2]  (AR v2)
Track  8  accurately ripped (confidence 4)  [B52A4032]  (AR v2)
Track  9  accurately ripped (confidence 4)  [1DD60BFE]  (AR v2)
Track 10  accurately ripped (confidence 4)  [447AB080]  (AR v2)
Track 11  accurately ripped (confidence 4)  [39FCF930]  (AR v2)
Track 12  accurately ripped (confidence 4)  [26A148F9]  (AR v2)
Track 13  accurately ripped (confidence 4)  [65CECF50]  (AR v2)
Track 14  accurately ripped (confidence 4)  [6E55C4C4]  (AR v2)
Track 15  accurately ripped (confidence 4)  [E71F7B20]  (AR v2)
Track 16  accurately ripped (confidence 4)  [BCECB716]  (AR v2)
 
All tracks accurately ripped

End of status report

---- CUETools DB Plugin V2.1.6

[CTDB TOCID: tHsX_saGyRvL97sjp0q81zTomCY-] found
Submit result: tHsX_saGyRvL97sjp0q81zTomCY- has been confirmed
Track | CTDB Status
  1   | (7/7) Accurately ripped
  2   | (7/7) Accurately ripped
  3   | (7/7) Accurately ripped
  4   | (7/7) Accurately ripped
  5   | (7/7) Accurately ripped
  6   | (7/7) Accurately ripped
  7   | (7/7) Accurately ripped
  8   | (7/7) Accurately ripped
  9   | (7/7) Accurately ripped
 10   | (7/7) Accurately ripped
 11   | (7/7) Accurately ripped
 12   | (7/7) Accurately ripped
 13   | (7/7) Accurately ripped
 14   | (7/7) Accurately ripped
 15   | (7/7) Accurately ripped
 16   | (7/7) Accurately ripped


==== Log checksum D89C10F9412F09C8CEB7F0314A1AB23CCBE739F60ED6C82AB4AFD6DD4F0BF163 ====



Create a new paste based on this one


Comments: