[ create a new paste ] login | about

Link: http://codepad.org/0pKzZDi6    [ raw code | fork ]

Plain Text, pasted on Oct 15:
foobar2000 1.6 / Dynamic Range Meter 1.1.1
log date: 2020-10-15 03:00:33

--------------------------------------------------------------------------------
Analyzed: Gloria Estefan / Greatest Hits (2002 Remaster)
--------------------------------------------------------------------------------

DR         Peak         RMS     Duration Track
--------------------------------------------------------------------------------
DR12      -0.25 dB   -13.69 dB      4:15 01-Conga
DR11      -0.21 dB   -13.66 dB      3:28 02-Words Get In The Way
DR13      -0.15 dB   -16.25 dB      3:57 03-Can't Stay Away From You
DR13      -0.07 dB   -14.45 dB      3:35 04-1,2,3
DR11      -0.20 dB   -13.22 dB      3:57 05-Rhythm Is Gonna Get You
DR12      -0.22 dB   -15.70 dB      4:03 06-Anything For You
DR13      -0.39 dB   -15.85 dB      4:52 07-Here We Are
DR11      -0.06 dB   -13.08 dB      3:40 08-Get On Your Feet
DR13      -0.24 dB   -16.29 dB      4:11 09-Don't Wanna Lose You
DR11      -0.38 dB   -15.62 dB      4:07 10-Coming Out Of The Dark
DR11      -0.22 dB   -13.97 dB      4:55 11-Christmas Through Your Eyes
DR11      -0.01 dB   -13.37 dB      4:36 12-I See Your Smile
DR10      -0.22 dB   -11.41 dB      4:19 13-Go Away
DR11      -0.19 dB   -14.15 dB      4:51 14-Always Tomorrow
--------------------------------------------------------------------------------

Number of tracks:  14
Official DR value: DR12

Samplerate:        88200 Hz
Channels:          2
Bits per sample:   24
Bitrate:           2651 kbps
Codec:             FLAC
================================================================================




Create a new paste based on this one


Comments: