[ create a new paste ] login | about

Link: http://codepad.org/0qFNXvlU    [ raw code | fork ]

Plain Text, pasted on Apr 11:
foobar2000 1.3.17 / Dynamic Range Meter 1.1.1
log date: 2018-04-11 10:35:17

--------------------------------------------------------------------------------
Analyzed: Rickie Lee Jones / Pirates (2009 MFSL Hybrid SACD)
--------------------------------------------------------------------------------

DR         Peak         RMS     Duration Track
--------------------------------------------------------------------------------
DR15      -0.19 dB   -20.61 dB      5:03 01-We Belong Together
DR13      -0.10 dB   -18.04 dB      6:21 02-Living It Up
DR14      -0.11 dB   -20.57 dB      3:38 03-Skeletons
DR14      -0.15 dB   -18.16 dB      5:20 04-Woody And Dutch On The Slow Train To Peking
DR13      -0.28 dB   -17.73 dB      3:53 05-Pirates (So Long Lonely Avenue)
DR14      -0.11 dB   -18.26 dB      4:17 06-A Lucky Guy
DR17      -0.09 dB   -22.15 dB      7:53 07-Traces Of Western Slopes
DR14      -0.25 dB   -20.10 dB      2:23 08-The Returns
--------------------------------------------------------------------------------

Number of tracks:  8
Official DR value: DR14

Samplerate:        44100 Hz
Channels:          2
Bits per sample:   16
Bitrate:           618 kbps
Codec:             FLAC
================================================================================




Create a new paste based on this one


Comments: