[ create a new paste ] login | about

Link: http://codepad.org/0qTQD2Mg    [ raw code | fork ]

Plain Text, pasted on Dec 13:
Exact Audio Copy V1.0 beta 3 from 29. August 2011

EAC extraction logfile from 17. July 2014, 16:45

The Beatles / Raw Enegry

Used drive  : ASUS    CRW-5224A   Adapter: 2  ID: 0

Read mode               : Secure
Utilize accurate stream : Yes
Defeat audio cache      : Yes
Make use of C2 pointers : No

Read offset correction                      : 6
Overread into Lead-In and Lead-Out          : No
Fill up missing offset samples with silence : Yes
Delete leading and trailing silent blocks   : No
Null samples used in CRC calculations       : Yes
Used interface                              : Native Win32 interface for Win NT & 2000

Used output format : Internal WAV Routines
Sample format      : 44.100 Hz; 16 Bit; Stereo


TOC of the extracted CD

     Track |   Start  |  Length  | Start sector | End sector 
    ---------------------------------------------------------
        1  |  0:00.00 |  2:57.22 |         0    |    13296   
        2  |  2:57.22 |  2:21.25 |     13297    |    23896   
        3  |  5:18.47 |  2:18.03 |     23897    |    34249   
        4  |  7:36.50 |  2:01.25 |     34250    |    43349   
        5  |  9:38.00 |  2:22.45 |     43350    |    54044   
        6  | 12:00.45 |  2:20.50 |     54045    |    64594   
        7  | 14:21.20 |  2:29.62 |     64595    |    75831   
        8  | 16:51.07 |  1:58.65 |     75832    |    84746   
        9  | 18:49.72 |  1:53.08 |     84747    |    93229   
       10  | 20:43.05 |  2:35.42 |     93230    |   104896   
       11  | 23:18.47 |  2:58.05 |    104897    |   118251   
       12  | 26:16.52 |  1:35.40 |    118252    |   125416   


Range status and errors

Selected range

     Filename C:\Music\Beatles Decca\1989 - Raw Energy\The Beatles - Raw Enegry.wav

     Peak level 99.6 %
     Extraction speed 2.4 X
     Range quality 100.0 %
     Copy CRC DC982EFC
     Copy OK

No errors occurred

End of status report



Create a new paste based on this one


Comments: