[ create a new paste ] login | about

Link: http://codepad.org/0rYqk3zn    [ raw code | fork ]

Plain Text, pasted on May 24:
EAC extraction logfile from 14. August 2005, 9:38 for CD
Isaac Hayes / Hot Buttered Soul [MFSL Ultradisc UHR]

Used drive  : _NEC    CD-RW NR-9300A   Adapter: 0  ID: 1
Read mode   : Secure with NO C2, accurate stream, disable cache
Read offset correction : 691
Overread into Lead-In and Lead-Out : No

Used output format : Internal WAV Routines
                     44.100 Hz; 16 Bit; Stereo

Other options      : 
    Fill up missing offset samples with silence : Yes
    Delete leading and trailing silent blocks : No
    Installed external ASPI interface


Track  1
     Filename C:\Documents and Settings\Kevin\My Documents\Shn Downloads\MFSL\Isaac Hayes - Hot Buttered Soul (1969) [flac] (MFSL)\01 - Walk on By.wav

     Pre-gap length  0:00:02.32

     Peak level 90.1 %
     Track quality 100.0 %
     Test CRC 5EA00614
     Copy CRC 5EA00614
     Copy OK

Track  2
     Filename C:\Documents and Settings\Kevin\My Documents\Shn Downloads\MFSL\Isaac Hayes - Hot Buttered Soul (1969) [flac] (MFSL)\02 - Hyperbolicsyllabicsesquedalymistic.wav

     Peak level 95.7 %
     Track quality 100.0 %
     Test CRC F21518A1
     Copy CRC F21518A1
     Copy OK

Track  3
     Filename C:\Documents and Settings\Kevin\My Documents\Shn Downloads\MFSL\Isaac Hayes - Hot Buttered Soul (1969) [flac] (MFSL)\03 - One Woman.wav

     Pre-gap length  0:00:01.27

     Peak level 94.5 %
     Track quality 99.9 %
     Test CRC 34651FF9
     Copy CRC 34651FF9
     Copy OK

Track  4
     Filename C:\Documents and Settings\Kevin\My Documents\Shn Downloads\MFSL\Isaac Hayes - Hot Buttered Soul (1969) [flac] (MFSL)\04 - By the Time I Get to Phoenix.wav

     Pre-gap length  0:00:01.60

     Peak level 96.7 %
     Track quality 100.0 %
     Test CRC ADFDAB10
     Copy CRC ADFDAB10
     Copy OK

No errors occured


End of status report



Create a new paste based on this one


Comments: