[ create a new paste ] login | about

Link: http://codepad.org/0tVQWMtb    [ raw code | fork ]

Plain Text, pasted on Jul 9:
[CUETools log; Date: 7/9/2016 5:36:51 AM; Version: 2.1.5]
[CTDB TOCID: 93iabApfZddhVB21zvTmgEjmf7I-] found.
Track | CTDB Status
  1   | (33/33) Accurately ripped
  2   | (33/33) Accurately ripped
  3   | (33/33) Accurately ripped
  4   | (33/33) Accurately ripped
  5   | (33/33) Accurately ripped
  6   | (33/33) Accurately ripped
  7   | (33/33) Accurately ripped
  8   | (33/33) Accurately ripped
  9   | (33/33) Accurately ripped
 10   | (33/33) Accurately ripped
[AccurateRip ID: 0019f21b-00cd9d3c-900f7f0a] found.
Track   [  CRC   |   V2   ] Status
 01     [809818b7|cca49531] (02+10/12) Accurately ripped
 02     [f109299e|0d823c28] (02+10/12) Accurately ripped
 03     [78c8032c|a686748d] (02+10/12) Accurately ripped
 04     [46d798d5|f545100f] (02+10/12) Accurately ripped
 05     [1e1108e3|a247ec86] (02+10/12) Accurately ripped
 06     [43e2a2f2|1db168ea] (02+10/12) Accurately ripped
 07     [2b852fdc|68a6b63c] (02+10/12) Accurately ripped
 08     [642829a9|d43b3182] (02+10/12) Accurately ripped
 09     [841582d5|381565eb] (02+10/12) Accurately ripped
 10     [ab7f2422|6686df21] (02+10/12) Accurately ripped

Track Peak [ CRC32  ] [W/O NULL] [  LOG   ]
 --   98.8 [4DCB0D4B] [93D50E52]           
 01   98.8 [53536035] [951379BB]   CRC32   
 02   98.8 [2022CF81] [0C7069EC]   CRC32   
 03   98.8 [31308FF1] [13DF7A89]   CRC32   
 04   98.8 [844FFF6D] [BDA5BE51]   CRC32   
 05   97.7 [B600815F] [479E5328]   CRC32   
 06   98.8 [E29913C1] [F48A476D]   CRC32   
 07   98.8 [0D716558] [1EDCC7C1]   CRC32   
 08   98.8 [ACC20D1B] [FB43535A]   CRC32   
 09   98.8 [FBB3FD00] [976BCCD5]   CRC32   
 10   98.8 [98E6AB40] [84916976]   CRC32   



Create a new paste based on this one


Comments: