[ create a new paste ] login | about

Link: http://codepad.org/0v4Uhiga    [ raw code | fork ]

Plain Text, pasted on Oct 12:
foobar2000 1.3.17 / Dynamic Range Meter 1.1.1
log date: 2018-10-12 10:34:30

--------------------------------------------------------------------------------
Analyzed: Keith Richards / Talk Is Cheap
--------------------------------------------------------------------------------

DR         Peak         RMS     Duration Track
--------------------------------------------------------------------------------
DR10      -0.63 dB   -11.88 dB      3:18 01-Big Enough
DR10      -0.63 dB   -12.54 dB      3:17 02-Take It So Hard
DR10      -0.63 dB   -12.62 dB      4:11 03-Struggle
DR10      -0.63 dB   -12.56 dB      3:14 04-I Could Have Stood You Up
DR10      -1.39 dB   -13.62 dB      4:53 05-Make No Mistake
DR9       -0.63 dB   -12.05 dB      4:50 06-You Don't Move Me
DR10      -0.63 dB   -12.65 dB      3:32 07-How I Wish
DR10      -0.63 dB   -12.38 dB      4:39 08-Rockawhile
DR10      -0.63 dB   -12.65 dB      4:03 09-Whip It Up
DR11      -0.63 dB   -13.33 dB      5:47 10-Locked Away
DR11      -0.63 dB   -12.89 dB      5:24 11-It Means A Lot
--------------------------------------------------------------------------------

Number of tracks:  11
Official DR value: DR10

Samplerate:        44100 Hz
Channels:          2
Bits per sample:   24
Bitrate:           1695 kbps
Codec:             FLAC
================================================================================




Create a new paste based on this one


Comments: