[ create a new paste ] login | about

Link: http://codepad.org/0xr0s5bG    [ raw code | fork ]

Plain Text, pasted on May 31:
foobar2000 1.4.4 / Dynamic Range Meter 1.1.1
log date: 2019-05-30 19:57:14

--------------------------------------------------------------------------------
Analyzed: Mott The Hoople / Mott The Hoople
--------------------------------------------------------------------------------

DR         Peak         RMS     Duration Track
--------------------------------------------------------------------------------
DR9       -0.10 dB   -10.12 dB      2:55 01-You Really Got Me
DR8       -0.10 dB   -10.19 dB      5:33 02-At The Crossroads
DR8       -0.10 dB   -11.26 dB      6:29 03-Laugh At Me
DR9       -0.10 dB   -11.03 dB      3:44 04-Backsliding Fearlessly
DR9       -0.10 dB   -11.01 dB      5:10 05-Rock And Roll Queen
DR9       -0.10 dB   -11.00 dB      2:03 06-Rabbit Foot And Toby Time
DR9       -0.10 dB   -11.83 dB     10:33 07-Half Moon Bay
DR7       -0.10 dB   -10.04 dB      1:42 08-Wrath And Wroll
--------------------------------------------------------------------------------

Number of tracks:  8
Official DR value: DR8

Samplerate:        192000 Hz
Channels:          2
Bits per sample:   24
Bitrate:           5841 kbps
Codec:             FLAC
================================================================================




Create a new paste based on this one


Comments: