[ create a new paste ] login | about

Link: http://codepad.org/14cfShsJ    [ raw code | fork ]

Plain Text, pasted on Oct 15:
foobar2000 1.6 / Dynamic Range Meter 1.1.1
log date: 2020-10-15 03:00:19

--------------------------------------------------------------------------------
Analyzed: Gloria Estefan / Greatest Hits (2002 Remaster)
--------------------------------------------------------------------------------

DR         Peak         RMS     Duration Track
--------------------------------------------------------------------------------
DR11      -0.01 dB   -14.96 dB      4:15 01-Conga
DR12      -0.72 dB   -15.99 dB      3:27 02-Words Get In The Way
DR13      -0.70 dB   -17.27 dB      3:57 03-Can't Stay Away From You
DR13      -0.47 dB   -16.24 dB      3:35 04-1,2,3
DR11      -0.54 dB   -15.01 dB      3:58 05-Rhythm Is Gonna Get You
DR13      -0.47 dB   -18.34 dB      4:02 06-Anything For You
DR12      -0.78 dB   -16.42 dB      4:54 07-Here We Are
DR12      -0.49 dB   -15.25 dB      3:39 08-Get On Your Feet
DR12      -0.71 dB   -16.93 dB      4:09 09-Don't Wanna Lose You
DR12      -0.74 dB   -16.37 dB      4:05 10-Coming Out Of The Dark
DR11      -0.80 dB   -14.75 dB      4:55 11-Christmas Through Your Eyes
DR11      -0.54 dB   -14.77 dB      4:37 12-I See Your Smile
DR10      -0.56 dB   -13.49 dB      4:20 13-Go Away
DR11      -0.91 dB   -16.12 dB      4:55 14-Always Tomorrow
--------------------------------------------------------------------------------

Number of tracks:  14
Official DR value: DR12

Samplerate:        88200 Hz
Channels:          6
Bits per sample:   24
Bitrate:           7437 kbps
Codec:             FLAC
================================================================================




Create a new paste based on this one


Comments: