[ create a new paste ] login | about

Link: http://codepad.org/1DmQ0Cjl    [ raw code | fork ]

Plain Text, pasted on Nov 23:
[CUETools log; Date: 11/23/2016 7:15:18 AM; Version: 2.1.5]
Pregap length 00:00:10.
[CTDB TOCID: UetP2yBqH6VIv5V.NBEQWY3EK8g-] found.
Track | CTDB Status
  1   | (14/14) Accurately ripped
  2   | (14/14) Accurately ripped
  3   | (14/14) Accurately ripped
  4   | (14/14) Accurately ripped
  5   | (14/14) Accurately ripped
  6   | (14/14) Accurately ripped
  7   | (14/14) Accurately ripped
  8   | (14/14) Accurately ripped
  9   | (14/14) Accurately ripped
 10   | (14/14) Accurately ripped
[AccurateRip ID: 00170179-00bb3de4-7f0ed80a] found.
Track   [  CRC   |   V2   ] Status
 01     [81c8c1de|593718b8] (09+22/40) Accurately ripped
 02     [85743e8e|f1c6055f] (09+22/40) Accurately ripped
 03     [217ae150|7c06d92b] (09+22/40) Accurately ripped
 04     [a9a15759|b65d8279] (09+22/40) Accurately ripped
 05     [ba73188b|4ed1e256] (09+22/40) Accurately ripped
 06     [063ee15e|94085fe0] (09+22/40) Accurately ripped
 07     [4cdfb448|9120ce40] (09+22/40) Accurately ripped
 08     [249bdd1d|e26da802] (09+22/40) Accurately ripped
 09     [c32a0258|afa57cd5] (09+22/40) Accurately ripped
 10     [747d96ae|dc9697b5] (09+21/38) Accurately ripped
Offsetted by -6:
 01     [46885b71] (06/40) Accurately ripped
 02     [a1d73a4d] (06/40) Accurately ripped
 03     [4f327571] (06/40) Accurately ripped
 04     [253c0a52] (06/40) Accurately ripped
 05     [13762dca] (06/40) Accurately ripped
 06     [29983c16] (06/40) Accurately ripped
 07     [606b988b] (06/40) Accurately ripped
 08     [f91cfaed] (06/40) Accurately ripped
 09     [efa25a69] (06/40) Accurately ripped
 10     [7070a556] (05/38) Accurately ripped

Track Peak [ CRC32  ] [W/O NULL] [  LOG   ]
 --  100.0 [1A4E0FC8] [4EA66170]   CRC32   
 01  100.0 [2318E56D] [05CC1586]           
 02  100.0 [796CF6C5] [96265BC2]           
 03  100.0 [E9BEFFF3] [EAAFC2B4]           
 04  100.0 [5761D7B4] [588F8425]           
 05  100.0 [A50E8919] [D174F6C8]           
 06  100.0 [396A9C0F] [16EF8C2F]           
 07  100.0 [762E1E04] [04AC8018]           
 08  100.0 [94ED9888] [A0AE64EA]           
 09  100.0 [2F5B813F] [E0F8BFD6]           
 10  100.0 [C42AABC5] [BDB803AE]           



Create a new paste based on this one


Comments: