[ create a new paste ] login | about

Link: http://codepad.org/1K0BUFZF    [ raw code | fork ]

Plain Text, pasted on Oct 12:
foobar2000 1.3.17 / Dynamic Range Meter 1.1.1
log date: 2018-10-12 14:56:34

--------------------------------------------------------------------------------
Analyzed: Dave Davies / Decade
--------------------------------------------------------------------------------

DR         Peak         RMS     Duration Track
--------------------------------------------------------------------------------
DR10      -0.20 dB   -11.84 dB      3:32 01-Cradle to the Grave
DR9       -0.16 dB   -10.60 dB      4:04 02-Midnight Sun
DR10      -0.20 dB   -11.40 dB      4:23 03-Islands
DR11      -0.20 dB   -12.42 dB      4:19 04-If You Are Leaving
DR10      -0.20 dB   -13.28 dB      4:25 05-Web of Time
DR10      -0.20 dB   -11.94 dB      2:34 06-Mystic Woman
DR11      -0.20 dB   -13.07 dB      4:05 07-Give You All My Love
DR9       -0.70 dB   -12.04 dB      3:13 08-The Journey
DR10      -0.20 dB   -12.03 dB      3:46 09-Within Each Day
DR11      -0.20 dB   -12.84 dB      4:10 10-Same Old Blues
DR9       -0.19 dB   -11.81 dB      3:49 11-Mr. Moon
DR10      -0.19 dB   -11.82 dB      3:38 12-Shadows
DR10      -0.20 dB   -11.60 dB      5:42 13-This Precious Time (Long Lonely Road)
--------------------------------------------------------------------------------

Number of tracks:  13
Official DR value: DR10

Samplerate:        44100 Hz
Channels:          2
Bits per sample:   24
Bitrate:           1563 kbps
Codec:             FLAC
================================================================================




Create a new paste based on this one


Comments: