[ create a new paste ] login | about

Link: http://codepad.org/1X3fMZ5O    [ raw code | fork ]

Plain Text, pasted on Jul 23:
foobar2000 1.3.17 / Dynamic Range Meter 1.1.1
log date: 2018-07-23 00:56:55

--------------------------------------------------------------------------------
Analyzed: ? / ?
--------------------------------------------------------------------------------

DR         Peak         RMS     Duration Track
--------------------------------------------------------------------------------
DR11      -5.86 dB   -22.24 dB      3:18 01-Lush Live
DR11      -5.94 dB   -22.16 dB      2:24 02-That´s My Girl
DR11      -5.66 dB   -21.05 dB      2:46 03-Wish I Were Somebody Else
DR12      -5.59 dB   -22.86 dB      3:29 04-Unforgettable
DR12      -5.61 dB   -22.08 dB      2:37 05-You Stepped Out Of A Dream
DR13      -5.57 dB   -24.93 dB      2:58 06-Tenderly
DR11      -5.88 dB   -20.89 dB      2:23 07-It´s Crazy
DR12      -5.71 dB   -23.44 dB      2:48 08-Pretend 
DR13      -5.61 dB   -25.03 dB      2:53 09-I Love You For Sentimental Reasons
DR11      -5.47 dB   -21.71 dB      1:55 10-Almost Like Being In Love
DR12      -5.55 dB   -23.66 dB      3:17 11-Red Sails In The Sunset
DR12      -5.86 dB   -22.67 dB      2:54 12-There Goes My Heart
DR11      -5.59 dB   -20.89 dB      2:23 13-This Can´t Be Love
DR12      -5.69 dB   -22.35 dB      2:54 14-Smile
DR11      -5.52 dB   -22.10 dB      2:45 15-When You´re Smiling 
DR13      -5.83 dB   -25.24 dB      3:01 16-I Was A Little Too Lonely And You Were Al Little Too Late
DR15      -5.60 dB   -26.76 dB      4:11 17-Blame It On My Youth
DR13      -5.52 dB   -24.51 dB      2:52 18-Darling, Je Vous Aime
DR13      -5.54 dB   -24.33 dB      3:55 19-You Can Depend On Me
DR14      -5.62 dB   -25.15 dB      3:55 20-Candy 
DR12      -5.59 dB   -23.25 dB      2:34 21-A Blossom Fell
DR13      -5.56 dB   -25.68 dB      2:47 22-Two Loves Have I
DR14      -5.78 dB   -26.28 dB      3:35 23-What Is There To Say
DR14      -5.65 dB   -25.34 dB      4:10 24-Sometimes I´m Happy
--------------------------------------------------------------------------------

Number of tracks:  24
Official DR value: DR12

Samplerate:        2822400 Hz / PCM Samplerate: 176400 Hz
Channels:          6
Bits per sample:   1
Bitrate:           16934 kbps
Codec:             DST64
================================================================================

--------------------------------------------------------------------------------
Analyzed: ? / ?
--------------------------------------------------------------------------------

DR         Peak         RMS     Duration Track
--------------------------------------------------------------------------------
DR11      -5.49 dB   -18.94 dB      3:18 01-Lush Live
DR12      -5.83 dB   -19.40 dB      2:24 02-That´s My Girl
DR11      -5.37 dB   -18.11 dB      2:46 03-Wish I Were Somebody Else
DR11      -5.69 dB   -20.02 dB      3:29 04-Unforgettable
DR12      -5.42 dB   -19.32 dB      2:37 05-You Stepped Out Of A Dream
DR13      -5.52 dB   -22.20 dB      2:58 06-Tenderly
DR11      -5.72 dB   -17.87 dB      2:23 07-It´s Crazy
DR11      -5.75 dB   -21.09 dB      2:48 08-Pretend 
DR13      -5.19 dB   -21.91 dB      2:53 09-I Love You For Sentimental Reasons
DR11      -5.60 dB   -19.41 dB      1:55 10-Almost Like Being In Love
DR12      -5.45 dB   -20.55 dB      3:17 11-Red Sails In The Sunset
DR11      -5.74 dB   -19.53 dB      2:54 12-There Goes My Heart
DR11      -5.65 dB   -17.89 dB      2:23 13-This Can´t Be Love
DR11      -5.68 dB   -19.67 dB      2:54 14-Smile
DR11      -5.59 dB   -19.07 dB      2:45 15-When You´re Smiling 
DR14      -5.52 dB   -22.41 dB      3:01 16-I Was A Little Too Lonely And You Were Al Little Too Late
DR15      -5.57 dB   -23.80 dB      4:11 17-Blame It On My Youth
DR13      -5.82 dB   -21.53 dB      2:52 18-Darling, Je Vous Aime
DR13      -5.63 dB   -21.41 dB      3:55 19-You Can Depend On Me
DR14      -5.40 dB   -22.32 dB      3:55 20-Candy 
DR12      -5.36 dB   -20.60 dB      2:34 21-A Blossom Fell
DR14      -5.67 dB   -22.59 dB      2:47 22-Two Loves Have I
DR14      -5.72 dB   -23.49 dB      3:35 23-What Is There To Say
DR14      -5.65 dB   -22.32 dB      4:10 24-Sometimes I´m Happy
--------------------------------------------------------------------------------

Number of tracks:  24
Official DR value: DR12

Samplerate:        2822400 Hz / PCM Samplerate: 176400 Hz
Channels:          2
Bits per sample:   1
Bitrate:           5645 kbps
Codec:             DST64
================================================================================




Create a new paste based on this one


Comments: