[ create a new paste ] login | about

Link: http://codepad.org/1fC5l7zQ    [ raw code | fork ]

Plain Text, pasted on May 11:
[CUETools log; Date: 5/11/2018 7:32:18 AM; Version: 2.1.5]
[CTDB TOCID: rkU0HrG7LkrvbD7iw_GQiF182cU-] found.
Track | CTDB Status
  1   | (22/22) Accurately ripped
  2   | (22/22) Accurately ripped
  3   | (22/22) Accurately ripped
  4   | (22/22) Accurately ripped
  5   | (22/22) Accurately ripped
  6   | (22/22) Accurately ripped
  7   | (22/22) Accurately ripped
  8   | (22/22) Accurately ripped
  9   | (22/22) Accurately ripped
 10   | (22/22) Accurately ripped
 11   | (22/22) Accurately ripped
[AccurateRip ID: 000fab8e-0088dc24-99094a0b] found.
Track   [  CRC   |   V2   ] Status
 01     [6e906e2e|ae9fb6df] (00+16/16) Accurately ripped
 02     [b3c2ad2c|7d66ff28] (00+16/16) Accurately ripped
 03     [664b0468|2f09457a] (00+16/16) Accurately ripped
 04     [eaf778a4|b0e4ce19] (00+16/16) Accurately ripped
 05     [02a7badb|d1556b51] (00+16/16) Accurately ripped
 06     [cd35ae1c|a46528c3] (00+16/16) Accurately ripped
 07     [3be5e9d2|6fe0aa85] (00+16/16) Accurately ripped
 08     [79c7b059|7fb87709] (00+16/16) Accurately ripped
 09     [c13b8bd3|6872b2d6] (00+16/16) Accurately ripped
 10     [037b42f9|f0ec558c] (00+16/16) Accurately ripped
 11     [f37ed347|b5104e68] (00+16/16) Accurately ripped

Track Peak [ CRC32  ] [W/O NULL] [  LOG   ]
 --  100.0 [55B8FB0A] [54C08852]           
 01   97.2 [B56EB63A] [6561D47A]   CRC32   
 02   95.0 [C5C48C14] [19A0B238]   CRC32   
 03  100.0 [95026784] [FC29345C]   CRC32   
 04   98.0 [B87FE827] [15DB3317]   CRC32   
 05   94.8 [13766812] [C500D90B]   CRC32   
 06   96.1 [B65AE88F] [1EE22772]   CRC32   
 07   99.3 [2604F088] [BAC5F6FC]   CRC32   
 08   97.3 [7ECD8629] [0305F842]   CRC32   
 09  100.0 [8FE4972D] [A1BF1BFB]   CRC32   
 10   98.5 [BF040EB1] [2A2B4D81]   CRC32   
 11   94.4 [5EA9AC22] [6D573823]   CRC32   



Create a new paste based on this one


Comments: