[ create a new paste ] login | about

Link: http://codepad.org/1krFz4dG    [ raw code | fork ]

Plain Text, pasted on Nov 2:
Exact Audio Copy V1.1 from 23. June 2015

EAC extraction logfile from 25. October 2016, 20:16

Lou Reed / Metal Machine Music

Used drive  : PLEXTOR BD-R  PX-B950SA   Adapter: 1  ID: 1

Read mode               : Secure
Utilize accurate stream : Yes
Defeat audio cache      : Yes
Make use of C2 pointers : No

Read offset correction                      : 6
Overread into Lead-In and Lead-Out          : No
Fill up missing offset samples with silence : Yes
Delete leading and trailing silent blocks   : No
Null samples used in CRC calculations       : Yes
Used interface                              : Native Win32 interface for Win NT & 2000

Used output format : Internal WAV Routines
Sample format      : 44.100 Hz; 16 Bit; Stereo


TOC of the extracted CD

     Track |   Start  |  Length  | Start sector | End sector 
    ---------------------------------------------------------
        1  |  0:00.00 | 16:05.52 |         0    |    72426   
        2  | 16:05.52 | 15:54.06 |     72427    |   143982   
        3  | 31:59.58 | 16:09.26 |    143983    |   216683   
        4  | 48:09.09 | 15:50.10 |    216684    |   287943   


Range status and errors

Selected range

     Filename C:\Lou Reed\2016 RCA & Arista Album Collection (17CD Box Set Sony Music)\1975 Metal Machine Music\Lou Reed - Metal Machine Music.wav

     Peak level 97.3 %
     Extraction speed 9.3 X
     Range quality 99.9 %
     Test CRC 119DD050
     Copy CRC 119DD050
     Copy OK

No errors occurred

 
AccurateRip summary
 
Track  1  not present in database
Track  2  not present in database
Track  3  not present in database
Track  4  not present in database
 
None of the tracks are present in the AccurateRip database

End of status report

---- CUETools DB Plugin V2.1.6

[CTDB TOCID: ePDIFbarf8BWTW.WQamuOp3gkEs-] found
Submit result: ePDIFbarf8BWTW.WQamuOp3gkEs- has been confirmed
Track | CTDB Status
  1   | (3/3) Accurately ripped
  2   | (3/3) Accurately ripped
  3   | (3/3) Accurately ripped
  4   | (3/3) Accurately ripped


==== Log checksum 0A6C31723AAB49133FF4505C76560AD7CCF58DED380EFF5FD35439CB9E076C1A ====



Create a new paste based on this one


Comments: