[ create a new paste ] login | about

Link: http://codepad.org/1kyXfkcB    [ raw code | fork ]

Plain Text, pasted on Apr 18:
Exact Audio Copy V1.3 from 2. September 2016

EAC extraction logfile from 31. March 2019, 10:01

Alphaville / Forever Young CD2 Singles, B-Sides, 12'' Versions

Used drive  : Optiarc DVD RW AD-7280S   Adapter: 1  ID: 0

Read mode               : Secure
Utilize accurate stream : Yes
Defeat audio cache      : Yes
Make use of C2 pointers : No

Read offset correction                      : 48
Overread into Lead-In and Lead-Out          : No
Fill up missing offset samples with silence : Yes
Delete leading and trailing silent blocks   : No
Null samples used in CRC calculations       : Yes
Used interface                              : Native Win32 interface for Win NT & 2000

Used output format : Internal WAV Routines
Sample format      : 44.100 Hz; 16 Bit; Stereo


TOC of the extracted CD

     Track |   Start  |  Length  | Start sector | End sector 
    ---------------------------------------------------------
        1  |  0:00.00 |  3:54.52 |         0    |    17601   
        2  |  3:54.52 |  3:18.39 |     17602    |    32490   
        3  |  7:13.16 |  4:32.08 |     32491    |    52898   
        4  | 11:45.24 |  3:17.51 |     52899    |    67724   
        5  | 15:03.00 |  3:51.28 |     67725    |    85077   
        6  | 18:54.28 |  3:11.67 |     85078    |    99469   
        7  | 22:06.20 |  3:52.52 |     99470    |   116921   
        8  | 25:58.72 |  3:53.42 |    116922    |   134438   
        9  | 29:52.39 |  7:25.13 |    134439    |   167826   
       10  | 37:17.52 |  7:44.38 |    167827    |   202664   
       11  | 45:02.15 |  4:13.61 |    202665    |   221700   
       12  | 49:16.01 |  6:11.64 |    221701    |   249589   
       13  | 55:27.65 |  6:31.30 |    249590    |   278944   
       14  | 61:59.20 |  5:57.74 |    278945    |   305793   
       15  | 67:57.19 |  5:08.03 |    305794    |   328896   


Range status and errors

Selected range

     Filename C:\Alphaville\1984 Forever Young (6-Disc Box Set Rhino Records 2019)\CD2 Original Singles, B-Sides, 12'' Versions\Alphaville - Forever Young CD2 Singles, B-Sides, 12'' Versions.wav

     Peak level 100.0 %
     Extraction speed 4.4 X
     Range quality 100.0 %
     Test CRC 5CD66266
     Copy CRC 5CD66266
     Copy OK

No errors occurred

 
AccurateRip summary
 
Track  1  not present in database
Track  2  not present in database
Track  3  not present in database
Track  4  not present in database
Track  5  not present in database
Track  6  not present in database
Track  7  not present in database
Track  8  not present in database
Track  9  not present in database
Track 10  not present in database
Track 11  not present in database
Track 12  not present in database
Track 13  not present in database
Track 14  not present in database
Track 15  not present in database
 
None of the tracks are present in the AccurateRip database

End of status report

---- CUETools DB Plugin V2.1.6

[CTDB TOCID: vMEZfNvAu0De4R01tgeIJLFP6vI-] found
Submit result: vMEZfNvAu0De4R01tgeIJLFP6vI- has been confirmed
Track | CTDB Status
  1   | (19/35) Accurately ripped
  2   | (19/35) Accurately ripped
  3   | (19/35) Accurately ripped
  4   | (19/35) Accurately ripped
  5   | (19/35) Accurately ripped
  6   | (19/35) Accurately ripped
  7   | (19/35) Accurately ripped
  8   | (19/35) Accurately ripped
  9   | (19/35) Accurately ripped
 10   | (19/35) Accurately ripped
 11   | (19/35) Accurately ripped
 12   | (19/35) Accurately ripped
 13   | (19/35) Accurately ripped
 14   | (19/35) Accurately ripped
 15   | (19/35) Accurately ripped


==== Log checksum 5927BB4BCA97AC4EB2F6B761CFFA5A796DB142821F4A3A164D0FA24572281F75 ====



Create a new paste based on this one


Comments: