[ create a new paste ] login | about

Link: http://codepad.org/1mbTpIlq    [ raw code | fork ]

Plain Text, pasted on Dec 26:
foobar2000 1.3.17 / Dynamic Range Meter 1.1.1
log date: 2018-11-22 18:48:14

--------------------------------------------------------------------------------
Analyzed: ? / ?
--------------------------------------------------------------------------------

DR         Peak         RMS     Duration Track
--------------------------------------------------------------------------------
DR14      -8.52 dB   -27.84 dB      4:15 01-PENGALANG
DR17      -4.13 dB   -25.15 dB      1:30 02-PENGAWIT
DR12     -13.37 dB   -29.69 dB      2:08 03-KEJOJOR
DR13      -9.17 dB   -26.10 dB      3:07 04-BEBAPANGAN
DR18      -2.39 dB   -26.28 dB      8:58 05-KAPANDUNG SITA
DR14     -12.09 dB   -30.16 dB      3:31 06-SEKAR JEPUN
DR14      -8.84 dB   -29.11 dB      8:53 07-SEMARA WINANGUN
DR17      -3.40 dB   -26.37 dB      9:07 08-RING TAMAN ASOKA
DR15      -4.43 dB   -23.82 dB      3:20 09-PAPONGGANGAN
DR17      -5.32 dB   -26.50 dB      2:20 10-PASIAT
DR16      -6.06 dB   -26.51 dB     10:29 11-SAKETI
DR16      -3.78 dB   -24.07 dB      5:24 12-BEBATURAN
--------------------------------------------------------------------------------

Number of tracks:  12
Official DR value: DR15

Samplerate:        2822400 Hz / PCM Samplerate: 176400 Hz
Channels:          5
Bits per sample:   1
Bitrate:           14112 kbps
Codec:             DST64
================================================================================

--------------------------------------------------------------------------------
Analyzed: ? / ?
--------------------------------------------------------------------------------

DR         Peak         RMS     Duration Track
--------------------------------------------------------------------------------
DR14      -8.13 dB   -26.46 dB      4:15 01-PENGALANG
DR16      -5.83 dB   -24.92 dB      1:30 02-PENGAWIT
DR12     -12.81 dB   -28.49 dB      2:08 03-KEJOJOR
DR13      -7.95 dB   -24.34 dB      3:07 04-BEBAPANGAN
DR17      -5.94 dB   -26.50 dB      8:58 05-KAPANDUNG SITA
DR13     -13.79 dB   -29.23 dB      3:31 06-SEKAR JEPUN
DR14      -8.47 dB   -27.33 dB      8:53 07-SEMARA WINANGUN
DR15      -5.88 dB   -26.25 dB      9:07 08-RING TAMAN ASOKA
DR14      -6.15 dB   -22.16 dB      3:20 09-PAPONGGANGAN
DR17      -6.04 dB   -26.14 dB      2:20 10-PASIAT
DR15      -5.99 dB   -25.19 dB     10:29 11-SAKETI
DR15      -6.13 dB   -22.80 dB      5:25 12-BEBATURAN
--------------------------------------------------------------------------------

Number of tracks:  12
Official DR value: DR15

Samplerate:        2822400 Hz / PCM Samplerate: 176400 Hz
Channels:          2
Bits per sample:   1
Bitrate:           5645 kbps
Codec:             DST64
================================================================================




Create a new paste based on this one


Comments: