[ create a new paste ] login | about

Link: http://codepad.org/1ydXomjr    [ raw code | fork ]

Plain Text, pasted on May 20:
foobar2000 1.3.15 / Dynamic Range Meter 1.1.1
log date: 2017-05-19 21:55:40

--------------------------------------------------------------------------------
Analyzed: ? / ?
--------------------------------------------------------------------------------

DR         Peak         RMS     Duration Track
--------------------------------------------------------------------------------
DR10      -5.96 dB   -21.92 dB      3:19 01-Moment to remember - Four Lads
DR13      -5.99 dB   -25.79 dB      2:39 02-It´s all in the Game - Tommy Edwards
DR11      -6.00 dB   -23.52 dB      2:55 03-Unchained Melody - Al Hibbler
DR11      -5.99 dB   -22.13 dB      3:01 04-Love is a many splendored thing - Four Aces
DR11      -6.00 dB   -21.76 dB      2:51 05-Rags to riches - Tony Bennett
DR11      -5.99 dB   -21.96 dB      2:59 06-Sincerely - Mc Guire Sisters
DR12      -5.99 dB   -26.58 dB      2:38 07-I almost lost my mind - Pat Boone
DR10      -6.00 dB   -20.59 dB      2:47 08-Sh-Boom - Crew Cuts
DR11      -6.00 dB   -21.22 dB      3:07 09-Oh my Papa - Eddie Fisher
DR11      -5.99 dB   -22.24 dB      2:06 10-Que sera, sera - Doris Day 
DR11      -6.00 dB   -21.51 dB      2:51 11-The naughty Lady - Ames Brothers
DR11      -5.99 dB   -20.74 dB      2:24 12-This ole house - Rosemary Clooney
DR9       -6.00 dB   -20.68 dB      3:31 13-Be my Love - Maria Lanza
DR12      -5.98 dB   -22.70 dB      3:04 14-Tennessee Waltz - Patti Page
DR11      -6.00 dB   -21.32 dB      2:59 15-Rock and Roll Waltz - Kay Starr
DR11      -5.99 dB   -21.66 dB      2:56 16-You, You, You - Ames Brothers
DR11      -5.95 dB   -21.50 dB      2:57 17-The Wayward Wind - Gogi Grant
DR13      -6.00 dB   -25.66 dB      2:38 18-Sixteen Tons - Tennessee Ernie Ford
DR11      -5.98 dB   -23.37 dB      2:26 19-Mister Sandman - The Chordettes
DR10      -5.99 dB   -20.77 dB      2:24 20-Hot Diggity - Perry Como
DR11      -5.99 dB   -21.61 dB      2:53 21-Music-Music-Music - Teresa Brewer
DR12      -5.99 dB   -22.00 dB      3:02 22-Yellow Rose of Texas - Mitch Miler & the Gang
DR11      -5.99 dB   -20.85 dB      2:18 23-Marianne - Terry Gilkyson&Easy Riders
DR11      -5.99 dB   -21.91 dB      2:22 24-Blueberry Hill - Fats Domino
DR10      -5.99 dB   -20.49 dB      2:40 25-Just Walking in the Rain - Johnnie Ray
--------------------------------------------------------------------------------

Number of tracks:  25
Official DR value: DR11

Samplerate:        2822400 Hz / PCM Samplerate: 88200 Hz
Channels:          6
Bits per sample:   1
Bitrate:           16934 kbps
Codec:             DST64
================================================================================

--------------------------------------------------------------------------------
Analyzed: ? / ?
--------------------------------------------------------------------------------

DR         Peak         RMS     Duration Track
--------------------------------------------------------------------------------
DR9       -6.02 dB   -19.52 dB      3:19 01-Moment to remember - Four Lads
DR14      -6.00 dB   -22.99 dB      2:39 02-It´s all in the Game - Tommy Edwards
DR12      -6.00 dB   -20.54 dB      2:55 03-Unchained Melody - Al Hibbler
DR9       -6.00 dB   -18.54 dB      3:01 04-Love is a many splendored thing - Four Aces
DR11      -5.99 dB   -18.96 dB      2:51 05-Rags to riches - Tony Bennett
DR10      -5.99 dB   -18.80 dB      2:59 06-Sincerely - Mc Guire Sisters
DR13      -5.99 dB   -23.95 dB      2:38 07-I almost lost my mind - Pat Boone
DR9       -5.99 dB   -17.21 dB      2:47 08-Sh-Boom - Crew Cuts
DR9       -6.00 dB   -17.86 dB      3:07 09-Oh my Papa - Eddie Fisher
DR11      -5.99 dB   -18.86 dB      2:06 10-Que sera, sera - Doris Day 
DR10      -6.04 dB   -18.38 dB      2:51 11-The naughty Lady - Ames Brothers
DR11      -5.99 dB   -17.92 dB      2:24 12-This ole house - Rosemary Clooney
DR7       -6.01 dB   -16.26 dB      3:31 13-Be my Love - Maria Lanza
DR11      -6.00 dB   -19.22 dB      3:04 14-Tennessee Waltz - Patti Page
DR10      -5.99 dB   -18.44 dB      2:59 15-Rock and Roll Waltz - Kay Starr
DR9       -5.99 dB   -17.92 dB      2:56 16-You, You, You - Ames Brothers
DR10      -5.98 dB   -17.68 dB      2:57 17-The Wayward Wind - Gogi Grant
DR13      -5.99 dB   -22.45 dB      2:38 18-Sixteen Tons - Tennessee Ernie Ford
DR11      -6.01 dB   -20.28 dB      2:26 19-Mister Sandman - The Chordettes
DR10      -5.99 dB   -17.59 dB      2:24 20-Hot Diggity - Perry Como
DR11      -6.00 dB   -18.90 dB      2:53 21-Music-Music-Music - Teresa Brewer
DR11      -5.99 dB   -19.13 dB      3:02 22-Yellow Rose of Texas - Mitch Miler & the Gang
DR10      -5.98 dB   -18.58 dB      2:18 23-Marianne - Terry Gilkyson&Easy Riders
DR12      -5.99 dB   -19.20 dB      2:22 24-Blueberry Hill - Fats Domino
DR9       -5.99 dB   -16.97 dB      2:40 25-Just Walking in the Rain - Johnnie Ray
--------------------------------------------------------------------------------

Number of tracks:  25
Official DR value: DR11

Samplerate:        2822400 Hz / PCM Samplerate: 88200 Hz
Channels:          2
Bits per sample:   1
Bitrate:           5645 kbps
Codec:             DST64
================================================================================




Create a new paste based on this one


Comments: