[ create a new paste ] login | about

Link: http://codepad.org/1yhsBosu    [ raw code | fork ]

Plain Text, pasted on Aug 1:
[CUETools log; Date: 8/1/2019 11:45:09 AM; Version: 2.1.5]
CD-Extra data track length 24:35:30.
[CTDB TOCID: NxoIPRbYC2s3UxRFaOGWBolqGkc-] found.
Track | CTDB Status
  1   | (2827/2854) Accurately ripped, or (2/2854) differs in 180 samples @01:19:45
  2   | (2839/2854) Accurately ripped
  3   | (2845/2854) Accurately ripped
  4   | (2844/2854) Accurately ripped
  5   | (2837/2854) Accurately ripped
  6   | (2841/2854) Accurately ripped
  7   | (2842/2854) Accurately ripped
  8   | (2837/2854) Accurately ripped
  9   | (2845/2854) Accurately ripped
 10   | (2839/2854) Accurately ripped
 11   | (2816/2854) Accurately ripped, or (6/2854) differs in 31753 samples @00:01:06-00:01:33, or (8/2854) differs in 31753 samples @00:01:06-00:01:33, or (3/2854) differs in 31753 samples @00:01:06-00:01:33, or (6/2854) differs in 31753 samples @00:01:06-00:01:33
 12   | (2841/2854) Accurately ripped
 13   | (2835/2854) Accurately ripped, or (6/2854) differs in 70 samples @00:16:29-00:16:30,00:16:44-00:16:45,00:29:57
 14   | (2811/2854) Accurately ripped, or (10/2854) differs in 1049 samples @00:40:14,00:41:74-00:42:00,00:42:59-00:42:60,00:44:14-00:44:15,00:44:44-00:44:45,00:45:14-00:45:15,01:00:45-01:00:46,01:01:15-01:01:16,01:02:15-01:02:16,01:03:45-01:03:46,01:05:01-01:05:02,01:05:31-01:05:32,01:05:46-01:05:47,01:06:16-01:06:17,01:06:31-01:06:32,01:07:01-01:07:02,01:07:16-01:07:17,01:07:31-01:07:32,01:08:01-01:08:02,01:08:16-01:08:17,01:08:46-01:08:47,01:09:47-01:09:48,01:09:62-01:09:63,01:11:17-01:11:18,01:11:32-01:11:33,01:12:33-01:12:34,01:12:63,01:15:64-01:15:65,01:16:19-01:16:20,01:24:07-01:24:08,01:27:54-01:27:55,01:28:09-01:28:10,01:28:70,01:29:10,01:29:55-01:29:56,01:58:62,01:59:63,02:00:64,02:04:68,02:06:25-02:06:26,02:20:72,02:22:13-02:22:14,02:22:59-02:22:60,02:24:00,02:29:22,02:29:53-02:29:54, or (8/2854) differs in 189 samples @00:33:60-00:33:61,00:35:50-00:35:51,00:35:66-00:35:67, or (3/2854) differs in 189 samples @00:33:60-00:33:61,00:35:50-00:35:51,00:35:66-00:35:67, or (6/2854) differs in 189 samples @00:33:60-00:33:61,00:35:50-00:35:51,00:35:66-00:35:67
[AccurateRip ID: 00131cc0-00d23009-d20dfa0f] found.
Track   [  CRC   |   V2   ] Status
 01     [4eaa0ae3|cc6bd739] (200+200/941) Accurately ripped
 02     [99bbd946|a94711e5] (200+200/945) Accurately ripped
 03     [16f899cd|2c387264] (200+200/943) Accurately ripped
 04     [70a11c6b|f1800f99] (200+200/945) Accurately ripped
 05     [b18e0b21|52f805f6] (200+200/947) Accurately ripped
 06     [43ededc8|8508d0e0] (200+200/946) Accurately ripped
 07     [3f577028|47cec200] (200+200/947) Accurately ripped
 08     [cef8988e|ff0ecedd] (200+200/946) Accurately ripped
 09     [a91f2ca8|18b6faf8] (200+200/948) Accurately ripped
 10     [d268fdb4|411992dd] (200+200/943) Accurately ripped
 11     [dbce3511|8973752a] (200+200/941) Accurately ripped
 12     [066c338a|805885ac] (200+200/944) Accurately ripped
 13     [d6a8f490|88c58090] (200+200/944) Accurately ripped
 14     [a966f9b0|b7daf505] (200+200/945) Accurately ripped
Offsetted by -862:
 01     [9cdc3ce8] (004/941) Accurately ripped
 02     [695b9fad] (004/945) Accurately ripped
 03     [14bf5809] (004/943) Accurately ripped
 04     [81b83e0e] (004/945) Accurately ripped
 05     [8b9de332] (004/947) Accurately ripped
 06     [a428e869] (004/946) Accurately ripped
 07     [924e81f5] (004/947) Accurately ripped
 08     [5f53c6c0] (004/946) Accurately ripped
 09     [5d655548] (004/948) Accurately ripped
 10     [2a61ffb8] (004/943) Accurately ripped
 11     [4a227af4] (004/941) Accurately ripped
 12     [7aacf824] (004/944) Accurately ripped
 13     [1e0fe1b7] (004/944) Accurately ripped
 14     [a085be8e] (004/945) Accurately ripped
Offsetted by -837:
 01     [fa4baccb] (002/941) Accurately ripped
 02     [cfee25ea] (002/945) Accurately ripped
 03     [4442823a] (002/943) Accurately ripped
 04     [5277aaa4] (002/945) Accurately ripped
 05     [fb8bf2de] (003/947) Accurately ripped
 06     [db76f355] (003/946) Accurately ripped
 07     [414bab6a] (003/947) Accurately ripped
 08     [8b5bb749] (003/946) Accurately ripped
 09     [e8e2e33b] (003/948) Accurately ripped
 10     [e17b6be5] (003/943) Accurately ripped
 11     [b89b0263] (003/941) Accurately ripped
 12     [24783487] (003/944) Accurately ripped
 13     [3a3955fe] (002/944) Accurately ripped
 14     [de2e2117] (002/945) Accurately ripped
Offsetted by -706:
 01     [ccc73974] (003/941) Accurately ripped
 02     [ed1ad9a5] (003/945) Accurately ripped
 03     [1218c4b4] (003/943) Accurately ripped
 04     [d2a0a26a] (003/945) Accurately ripped
 05     [b3446626] (003/947) Accurately ripped
 06     [4d28a1db] (003/946) Accurately ripped
 07     [f0aa95f9] (003/947) Accurately ripped
 08     [0750b8e8] (003/946) Accurately ripped
 09     [3982b880] (003/948) Accurately ripped
 10     [10ccc2c7] (003/943) Accurately ripped
 11     [e8dba0b7] (003/941) Accurately ripped
 12     [dcdcebd0] (003/944) Accurately ripped
 13     [36e70cb7] (003/944) Accurately ripped
 14     [15e55777] (003/945) Accurately ripped
Offsetted by -694:
 01     [73dc0954] (005/941) Accurately ripped
 02     [98b65c81] (005/945) Accurately ripped
 03     [18ab68e6] (005/943) Accurately ripped
 04     [50b88905] (005/945) Accurately ripped
 05     [f41beb64] (005/947) Accurately ripped
 06     [4fe58230] (005/946) Accurately ripped
 07     [4f65d831] (005/947) Accurately ripped
 08     [c88864f9] (005/946) Accurately ripped
 09     [0a300dd7] (005/948) Accurately ripped
 10     [08d6a0e2] (005/943) Accurately ripped
 11     [142ada69] (005/941) Accurately ripped
 12     [8cf92079] (005/944) Accurately ripped
 13     [81ba78d7] (005/944) Accurately ripped
 14     [2cc1206d] (005/945) Accurately ripped
Offsetted by -30:
 01     [1358c441] (009/941) Accurately ripped
 02     [22b03260] (009/945) Accurately ripped
 03     [9317b494] (009/943) Accurately ripped
 04     [35e201ea] (009/945) Accurately ripped
 05     [074feb45] (009/947) Accurately ripped
 06     [da07b73b] (009/946) Accurately ripped
 07     [b155c4c3] (009/947) Accurately ripped
 08     [a48b127b] (009/946) Accurately ripped
 09     [74f02f48] (009/948) Accurately ripped
 10     [6e77eafc] (009/943) Accurately ripped
 11     [f87dbc6b] (009/941) Accurately ripped
 12     [27108b8a] (009/944) Accurately ripped
 13     [87db4b72] (009/944) Accurately ripped
 14     [4936e205] (009/945) Accurately ripped
Offsetted by -19:
 01     [c5c0a1f7] (002/941) Accurately ripped
 02     [43d32f28] (002/945) Accurately ripped
 03     [582fe729] (002/943) Accurately ripped
 04     [486d23b7] (002/945) Accurately ripped
 05     [5a0b0f27] (002/947) Accurately ripped
 06     [f14653e3] (002/946) Accurately ripped
 07     [2eacddb5] (002/947) Accurately ripped
 08     [7b3b6fa7] (002/946) Accurately ripped
 09     [c27cf4bd] (002/948) Accurately ripped
 10     [91c1abdb] (002/943) Accurately ripped
 11     [0f10af76] (002/941) Accurately ripped
 12     [a0393a0d] (002/944) Accurately ripped
 13     [f663905c] (002/944) Accurately ripped
 14     [6bf4fbc2] (002/945) Accurately ripped
Offsetted by 6:
 01     [b77551fd] (200/941) Accurately ripped
 02     [4916e7d1] (200/945) Accurately ripped
 03     [fc4f91ac] (200/943) Accurately ripped
 04     [ae55c8dd] (200/945) Accurately ripped
 05     [3fef8f44] (200/947) Accurately ripped
 06     [a05fb445] (200/946) Accurately ripped
 07     [fb517d6d] (200/947) Accurately ripped
 08     [e52924a3] (200/946) Accurately ripped
 09     [e90469eb] (200/948) Accurately ripped
 10     [18d66be0] (200/943) Accurately ripped
 11     [8c44f9db] (200/941) Accurately ripped
 12     [cc011317] (200/944) Accurately ripped
 13     [88c63c4e] (200/944) Accurately ripped
 14     [bd1c64d6] (200/945) Accurately ripped
Offsetted by -667:
 01     [e5ed085c] (000/941) No match (V2 was not tested)
 02     [f8cc3c0d] (000/945) No match (V2 was not tested)
 03     [6fbd5afb] (000/943) No match (V2 was not tested)
 04     [2848d17c] (000/945) No match (V2 was not tested)
 05     [ab41e2d2] (000/947) No match (V2 was not tested)
 06     [d70051e9] (000/946) No match (V2 was not tested)
 07     [24992466] (000/947) No match (V2 was not tested)
 08     [6b3f509f] (000/946) No match (V2 was not tested)
 09     [aa7edfeb] (000/948) No match (V2 was not tested)
 10     [939fa8da] (000/943) No match (V2 was not tested)
 11     [f9ea7894] (000/941) No match (V2 was not tested)
 12     [74ad7377] (000/944) No match (V2 was not tested)
 13     [1aa5a4cd] (000/944) No match (V2 was not tested)
 14     [5a7bdeb9] (000/945) No match (V2 was not tested)
Offsetted by -664:
 01     [c8d2a535] (000/941) No match (V2 was not tested)
 02     [c470480a] (000/945) No match (V2 was not tested)
 03     [4a290a52] (000/943) No match (V2 was not tested)
 04     [991c03ad] (000/945) No match (V2 was not tested)
 05     [7b4490ee] (000/947) No match (V2 was not tested)
 06     [95c7e0e0] (000/946) No match (V2 was not tested)
 07     [0b8792ec] (000/947) No match (V2 was not tested)
 08     [6c9ecc51] (000/946) No match (V2 was not tested)
 09     [2593b4ca] (000/948) No match (V2 was not tested)
 10     [f557095d] (000/943) No match (V2 was not tested)
 11     [38464fed] (000/941) No match (V2 was not tested)
 12     [02198c07] (000/944) No match (V2 was not tested)
 13     [28998e6e] (000/944) No match (V2 was not tested)
 14     [5f270fd5] (000/945) No match (V2 was not tested)
Offsetted by -640:
 01     [72074aa2] (000/941) No match (V2 was not tested)
 02     [15356c0a] (000/945) No match (V2 was not tested)
 03     [ba72ba52] (000/943) No match (V2 was not tested)
 04     [565d9194] (000/945) No match (V2 was not tested)
 05     [e66a1b55] (000/947) No match (V2 was not tested)
 06     [bf191619] (000/946) No match (V2 was not tested)
 07     [fa01b926] (000/947) No match (V2 was not tested)
 08     [a2688007] (000/946) No match (V2 was not tested)
 09     [44ac9b36] (000/948) No match (V2 was not tested)
 10     [261f63c9] (000/943) No match (V2 was not tested)
 11     [d55c2682] (000/941) No match (V2 was not tested)
 12     [bdf61193] (000/944) No match (V2 was not tested)
 13     [a1906325] (000/944) No match (V2 was not tested)
 14     [82f395b5] (000/945) No match (V2 was not tested)
Offsetted by -222:
 01     [cea8ce95] (000/941) No match (V2 was not tested)
 02     [e63071d1] (000/945) No match (V2 was not tested)
 03     [04aa5fef] (000/943) No match (V2 was not tested)
 04     [59e7da0e] (000/945) No match (V2 was not tested)
 05     [a68a03e1] (000/947) No match (V2 was not tested)
 06     [018f7fa5] (000/946) No match (V2 was not tested)
 07     [d5567fed] (000/947) No match (V2 was not tested)
 08     [455e1739] (000/946) No match (V2 was not tested)
 09     [241a5d2c] (000/948) No match (V2 was not tested)
 10     [d691b5de] (000/943) No match (V2 was not tested)
 11     [34fd38bd] (000/941) No match (V2 was not tested)
 12     [a954641e] (000/944) No match (V2 was not tested)
 13     [57e54744] (000/944) No match (V2 was not tested)
 14     [6f60b499] (000/945) No match (V2 was not tested)
Offsetted by -132:
 01     [3621c3ad] (000/941) No match (V2 was not tested)
 02     [67e470d2] (000/945) No match (V2 was not tested)
 03     [5f1de624] (000/943) No match (V2 was not tested)
 04     [e4cf11b1] (000/945) No match (V2 was not tested)
 05     [7f22456e] (000/947) No match (V2 was not tested)
 06     [e2553c21] (000/946) No match (V2 was not tested)
 07     [695c8b5f] (000/947) No match (V2 was not tested)
 08     [7f0ba057] (000/946) No match (V2 was not tested)
 09     [8b15922e] (000/948) No match (V2 was not tested)
 10     [8065cc40] (000/943) No match (V2 was not tested)
 11     [f5c534e6] (000/941) No match (V2 was not tested)
 12     [1a5f6bb0] (000/944) No match (V2 was not tested)
 13     [6b2b7742] (000/944) No match (V2 was not tested)
 14     [2992c978] (000/945) No match (V2 was not tested)
Offsetted by -78:
 01     [7b5a0e2d] (000/941) No match (V2 was not tested)
 02     [0bac2bf0] (000/945) No match (V2 was not tested)
 03     [3b2ae51d] (000/943) No match (V2 was not tested)
 04     [d4bb477f] (000/945) No match (V2 was not tested)
 05     [64949e46] (000/947) No match (V2 was not tested)
 06     [5c3d94df] (000/946) No match (V2 was not tested)
 07     [3e9da61d] (000/947) No match (V2 was not tested)
 08     [3cdc9cb4] (000/946) No match (V2 was not tested)
 09     [b76df591] (000/948) No match (V2 was not tested)
 10     [f6b10b97] (000/943) No match (V2 was not tested)
 11     [537e0710] (000/941) No match (V2 was not tested)
 12     [36759ca9] (000/944) No match (V2 was not tested)
 13     [d5648ce7] (000/944) No match (V2 was not tested)
 14     [b8f98842] (000/945) No match (V2 was not tested)
Offsetted by -60:
 01     [1244d013] (000/941) No match (V2 was not tested)
 02     [f674967a] (000/945) No match (V2 was not tested)
 03     [11b59d27] (000/943) No match (V2 was not tested)
 04     [677d503d] (000/945) No match (V2 was not tested)
 05     [d73a0f54] (000/947) No match (V2 was not tested)
 06     [dcaee951] (000/946) No match (V2 was not tested)
 07     [496cad87] (000/947) No match (V2 was not tested)
 08     [1d6ffa42] (000/946) No match (V2 was not tested)
 09     [45958e99] (000/948) No match (V2 was not tested)
 10     [a0dd44c9] (000/943) No match (V2 was not tested)
 11     [914bea1d] (000/941) No match (V2 was not tested)
 12     [43d99bd2] (000/944) No match (V2 was not tested)
 13     [4fdbd292] (000/944) No match (V2 was not tested)
 14     [ed29c9d1] (000/945) No match (V2 was not tested)
Offsetted by -48:
 01     [9dc2c90e] (000/941) No match (V2 was not tested)
 02     [0b1c736f] (000/945) No match (V2 was not tested)
 03     [6c51e3c5] (000/943) No match (V2 was not tested)
 04     [720e4443] (000/945) No match (V2 was not tested)
 05     [3c16b66f] (000/947) No match (V2 was not tested)
 06     [59e6a5b7] (000/946) No match (V2 was not tested)
 07     [3f6a4d26] (000/947) No match (V2 was not tested)
 08     [8e7c6a2e] (000/946) No match (V2 was not tested)
 09     [db04aed5] (000/948) No match (V2 was not tested)
 10     [dccfe548] (000/943) No match (V2 was not tested)
 11     [7c0b4877] (000/941) No match (V2 was not tested)
 12     [e9525de8] (000/944) No match (V2 was not tested)
 13     [7302b856] (000/944) No match (V2 was not tested)
 14     [116ca046] (000/945) No match (V2 was not tested)
Offsetted by -24:
 01     [8d7359fe] (000/941) No match (V2 was not tested)
 02     [ffbaf880] (000/945) No match (V2 was not tested)
 03     [8d4918da] (000/943) No match (V2 was not tested)
 04     [b3451049] (000/945) No match (V2 was not tested)
 05     [7fc0bb8d] (000/947) No match (V2 was not tested)
 06     [996976bf] (000/946) No match (V2 was not tested)
 07     [6b701325] (000/947) No match (V2 was not tested)
 08     [a5c728a5] (000/946) No match (V2 was not tested)
 09     [8e33ca02] (000/948) No match (V2 was not tested)
 10     [bb925ec1] (000/943) No match (V2 was not tested)
 11     [60e8deb2] (000/941) No match (V2 was not tested)
 12     [915f54fc] (000/944) No match (V2 was not tested)
 13     [84f84662] (000/944) No match (V2 was not tested)
 14     [5c194d31] (000/945) No match (V2 was not tested)
Offsetted by -6:
 01     [34d0dde9] (000/941) No match (V2 was not tested)
 02     [b4c4d5bd] (000/945) No match (V2 was not tested)
 03     [99ba3d72] (000/943) No match (V2 was not tested)
 04     [1810ef51] (000/945) No match (V2 was not tested)
 05     [a7c9f26e] (000/947) No match (V2 was not tested)
 06     [0debf769] (000/946) No match (V2 was not tested)
 07     [2302b661] (000/947) No match (V2 was not tested)
 08     [2938d2fb] (000/946) No match (V2 was not tested)
 09     [859b6708] (000/948) No match (V2 was not tested)
 10     [a64b9c46] (000/943) No match (V2 was not tested)
 11     [6b03c7a7] (000/941) No match (V2 was not tested)
 12     [b365deac] (000/944) No match (V2 was not tested)
 13     [6bd409e9] (000/944) No match (V2 was not tested)
 14     [95dc8e8b] (000/945) No match (V2 was not tested)
Offsetted by 12:
 01     [2158c03f] (000/941) No match
 02     [bf617450] (000/945) No match
 03     [b8e14a97] (000/943) No match
 04     [c22b30be] (000/945) No match
 05     [9d90318a] (000/947) No match
 06     [97f6156a] (000/946) No match
 07     [636e5f0f] (000/947) No match
 08     [945f41df] (000/946) No match
 09     [52939a84] (000/948) No match
 10     [62c5f6f2] (000/943) No match
 11     [b7180147] (000/941) No match
 12     [308f1fc9] (000/944) No match
 13     [a43ede84] (002/944) Accurately ripped
 14     [d105d007] (002/945) Accurately ripped

Track Peak [ CRC32  ] [W/O NULL] [  LOG   ]
 --   96.6 [DE5A90C2] [EC18E48C]   CRC32   
 01   96.0 [21B3BB06] [3531F96B]           
 02   95.9 [81C3E418] [39093F33]           
 03   95.8 [6D7A5309] [842E8E5B]           
 04   95.8 [8BFB1160] [02C2346E]           
 05   95.8 [5AC19C79] [406F70E4]           
 06   95.8 [CECFBFD9] [A4E4E481]           
 07   96.6 [C64C4C10] [07BFECCF]           
 08   95.8 [A1B0FF88] [6FF73319]           
 09   92.0 [7135C4B8] [A149D65E]           
 10   95.8 [8D7D1588] [21832668]           
 11   95.7 [71832D63] [88DB90B6]           
 12   91.5 [B33A4CF9] [9DFCCC1A]           
 13   95.8 [4C1BF5E9] [7087286A]           
 14   95.8 [9B99AFCC] [A2F3BA0E]           



Create a new paste based on this one


Comments: