[ create a new paste ] login | about

Link: http://codepad.org/20oeU2eF    [ raw code | fork ]

Plain Text, pasted on Oct 2:
foobar2000 1.6 / Dynamic Range Meter 1.1.1
log date: 2020-10-02 02:47:41

--------------------------------------------------------------------------------
Analyzed: David 'Fathead' Newman / Kinda Jazzy Kinda Funky Volume 2 (1)
          Eric Alexander / Kinda Jazzy Kinda Funky Volume 2 (2)
--------------------------------------------------------------------------------

DR         Peak         RMS     Duration Track
--------------------------------------------------------------------------------
DR11      -5.16 dB   -18.33 dB      4:09 03-Shakabu
DR11      -6.78 dB   -18.67 dB      6:57 05-A Few Miles From Memphis
--------------------------------------------------------------------------------

Number of tracks:  2
Official DR value: DR11

Samplerate:        2822400 Hz / PCM Samplerate: 176400 Hz
Channels:          2
Bits per sample:   1
Bitrate:           5645 kbps
Codec:             DSD64
================================================================================

--------------------------------------------------------------------------------
Analyzed: Jim Payne / Kinda Jazzy Kinda Funky Volume 2 (1)
          Melvin Sparks / Kinda Jazzy Kinda Funky Volume 2 (2-3)
--------------------------------------------------------------------------------

DR         Peak         RMS     Duration Track
--------------------------------------------------------------------------------
DR10      -5.65 dB   -16.84 dB      4:22 02-P. Brain 
DR8       -5.76 dB   -15.83 dB      7:29 06-Guitar Playah
DR8       -6.34 dB   -16.85 dB      3:18 10-A Love Jam
--------------------------------------------------------------------------------

Number of tracks:  3
Official DR value: DR9

Samplerate:        2822400 Hz / PCM Samplerate: 176400 Hz
Channels:          2
Bits per sample:   1
Bitrate:           5645 kbps
Codec:             DSD64
================================================================================

--------------------------------------------------------------------------------
Analyzed: Mike LeDonne / Kinda Jazzy Kinda Funky Volume 2 (1)
          'Papa' John DeFrancesco / Kinda Jazzy Kinda Funky Volume 2 (2)
--------------------------------------------------------------------------------

DR         Peak         RMS     Duration Track
--------------------------------------------------------------------------------
DR11      -6.28 dB   -18.80 dB      6:43 04-Delilah
DR10      -5.58 dB   -16.68 dB      7:54 09-160 Million Dollar Chinese Man
--------------------------------------------------------------------------------

Number of tracks:  2
Official DR value: DR10

Samplerate:        2822400 Hz / PCM Samplerate: 176400 Hz
Channels:          2
Bits per sample:   1
Bitrate:           5645 kbps
Codec:             DSD64
================================================================================

--------------------------------------------------------------------------------
Analyzed: Rodney Jones / Kinda Jazzy Kinda Funky Volume 2
--------------------------------------------------------------------------------

DR         Peak         RMS     Duration Track
--------------------------------------------------------------------------------
DR10      -5.66 dB   -17.11 dB      5:13 01-Let The Music Take Your Mind 
DR10      -5.63 dB   -17.00 dB      7:00 08-Soul Makossa
--------------------------------------------------------------------------------

Number of tracks:  2
Official DR value: DR10

Samplerate:        2822400 Hz / PCM Samplerate: 176400 Hz
Channels:          2
Bits per sample:   1
Bitrate:           5645 kbps
Codec:             DSD64
================================================================================

--------------------------------------------------------------------------------
Statistics for: 07-The Spirits Up Above 
Number of samples: 775407360
Duration: 4:35 
--------------------------------------------------------------------------------

                 Left              Right

Peak Value:     -5.55 dB   ---     -5.64 dB   
Avg RMS:       -15.55 dB   ---    -16.69 dB   
DR channel:      8.60 dB   ---      9.72 dB   
--------------------------------------------------------------------------------

Official DR Value: DR9

Samplerate:        2822400 Hz / PCM Samplerate: 176400 Hz
Channels:          2
Bits per sample:   1
Bitrate:           5645 kbps
Codec:             DSD64
================================================================================



Create a new paste based on this one


Comments: