[ create a new paste ] login | about

Link: http://codepad.org/25ezzQZS    [ raw code | fork ]

Plain Text, pasted on Mar 16:
[CUETools log; Date: 3/16/2016 2:36:57 PM; Version: 2.1.5]
[CTDB TOCID: jvHD9O57YZ5pnEi7sq3a5Ly69Z8-] found.
Track | CTDB Status
  1   | (28/28) Accurately ripped
  2   | (28/28) Accurately ripped
  3   | (28/28) Accurately ripped
  4   | (28/28) Accurately ripped
  5   | (28/28) Accurately ripped
  6   | (28/28) Accurately ripped
  7   | (28/28) Accurately ripped
  8   | (28/28) Accurately ripped
  9   | (28/28) Accurately ripped
 10   | (26/28) Accurately ripped
 11   | (28/28) Accurately ripped
[AccurateRip ID: 000c91d2-006d6427-8c077a0b] found.
Track   [  CRC   |   V2   ] Status
 01     [8d82ca14|7305e551] (08+43/51) Accurately ripped
 02     [39735996|2e202c1a] (08+44/52) Accurately ripped
 03     [24d7909f|379ad5d2] (08+44/52) Accurately ripped
 04     [1477f701|5bdf53fb] (08+44/52) Accurately ripped
 05     [56858820|14bad34f] (08+44/52) Accurately ripped
 06     [903fe9fe|554e41a9] (08+44/52) Accurately ripped
 07     [740b28bf|d0bf593b] (08+43/51) Accurately ripped
 08     [6b5e709e|0ebc34b4] (08+44/52) Accurately ripped
 09     [269929f6|0d5a06a1] (08+42/50) Accurately ripped
 10     [c4fed93e|1d396e45] (08+42/50) Accurately ripped
 11     [c01a60ca|dfc21b77] (08+43/51) Accurately ripped

Track Peak [ CRC32  ] [W/O NULL] [  LOG   ]
 --   98.3 [72D1F9E6] [8C0F7A42]   CRC32   
 01   97.5 [6DA5B588] [A122E91D]           
 02   77.7 [4E198FD9] [2270433B]           
 03   95.7 [A29ACB8F] [538595F4]           
 04   96.3 [22684239] [61C7D83B]           
 05   97.8 [C2FFE410] [52B2FBA7]           
 06   42.6 [3639CE24] [FDF77598]           
 07   98.3 [0E979A58] [0788CF31]           
 08   92.3 [39FCED03] [240E786C]           
 09   85.5 [D384DB75] [03F218FC]           
 10   79.8 [E2C540B0] [1886FA26]           
 11   95.4 [6666D089] [3B2BA69D]           



Create a new paste based on this one


Comments: