[ create a new paste ] login | about

Link: http://codepad.org/298uGjjR    [ raw code | fork ]

Plain Text, pasted on Aug 27:
[CUETools log; Date: 8/20/2018 11:50:05 AM; Version: 2.1.5]
[CTDB TOCID: DyLfJarYVGjvQ_e1ONCipDyomFo-] found.
Track | CTDB Status
  1   | (57/57) Accurately ripped
  2   | (57/57) Accurately ripped
  3   | (57/57) Accurately ripped
  4   | (57/57) Accurately ripped
  5   | (56/57) Accurately ripped
  6   | (57/57) Accurately ripped
  7   | (57/57) Accurately ripped
  8   | (57/57) Accurately ripped
  9   | (56/57) Accurately ripped
 10   | (57/57) Accurately ripped
 11   | (57/57) Accurately ripped
 12   | (57/57) Accurately ripped
 13   | (57/57) Accurately ripped
 14   | (56/57) Accurately ripped
 15   | (57/57) Accurately ripped
 16   | (57/57) Accurately ripped
 17   | (56/57) Accurately ripped
 18   | (56/57) Accurately ripped
 19   | (57/57) Accurately ripped
 20   | (56/57) Accurately ripped
[AccurateRip ID: 0023ca64-020caea4-0f0baf14] found.
Track   [  CRC   |   V2   ] Status
 01     [ee5597d3|43ae4149] (00+03/17) Accurately ripped
 02     [c3ba8606|257df312] (00+03/18) Accurately ripped
 03     [610fb160|83e98e4c] (00+03/17) Accurately ripped
 04     [e928d520|62581007] (00+03/18) Accurately ripped
 05     [d0ac4805|4f800ed5] (00+03/17) Accurately ripped
 06     [06be6944|9f68dbff] (00+03/18) Accurately ripped
 07     [f542d308|7315b63a] (00+03/18) Accurately ripped
 08     [13835fce|4337a0f9] (00+03/18) Accurately ripped
 09     [d27337d3|f78a357d] (00+03/17) Accurately ripped
 10     [5f636984|a5a302a1] (00+03/18) Accurately ripped
 11     [d94aaa0f|cd37d63e] (00+03/19) Accurately ripped
 12     [8103c6bc|483134d5] (00+03/18) Accurately ripped
 13     [3b784196|6a684d50] (00+03/18) Accurately ripped
 14     [69aac856|4507121f] (00+03/18) Accurately ripped
 15     [11235832|ad2c44fc] (00+03/18) Accurately ripped
 16     [f5f6a591|b084defa] (00+03/17) Accurately ripped
 17     [37de096c|252b81e6] (00+03/17) Accurately ripped
 18     [cf978728|8e3ea581] (00+03/18) Accurately ripped
 19     [61111603|032e23cd] (00+03/18) Accurately ripped
 20     [918f7f90|904d1aad] (00+03/18) Accurately ripped
Offsetted by -860:
 01     [da3ec65d] (04/17) Accurately ripped
 02     [e1284ae6] (04/18) Accurately ripped
 03     [61d8534c] (04/17) Accurately ripped
 04     [20a0f00e] (04/18) Accurately ripped
 05     [78622e43] (04/17) Accurately ripped
 06     [4efa1604] (04/18) Accurately ripped
 07     [0900a7a8] (04/18) Accurately ripped
 08     [b0f8f734] (04/18) Accurately ripped
 09     [f729c31d] (04/17) Accurately ripped
 10     [aac055fc] (04/18) Accurately ripped
 11     [e8b94c43] (04/19) Accurately ripped
 12     [d748a634] (04/18) Accurately ripped
 13     [af67f73e] (04/18) Accurately ripped
 14     [391aaa66] (04/18) Accurately ripped
 15     [45711c1c] (04/18) Accurately ripped
 16     [2012ac0f] (04/17) Accurately ripped
 17     [912e28c6] (04/17) Accurately ripped
 18     [527c239a] (04/18) Accurately ripped
 19     [7e439da3] (04/18) Accurately ripped
 20     [51b883be] (04/18) Accurately ripped

Track Peak [ CRC32  ] [W/O NULL] [  LOG   ]
 --  100.0 [61707EC0] [17B34C6A]           
 01   99.4 [DAD03599] [8747586B]   CRC32   
 02   99.0 [944118C4] [5A045900]   CRC32   
 03   99.8 [ADA77D48] [2E80FC92]   CRC32   
 04   99.4 [E9E974D1] [D7A4BD3A]   CRC32   
 05   82.9 [47EC85B7] [4D4D9334]   CRC32   
 06   79.8 [1F995A71] [E2BD775D]   CRC32   
 07   74.9 [3165976D] [92C27EB6]   CRC32   
 08   85.1 [71F9E11E] [94DE3EC4]   CRC32   
 09   90.6 [8C58D3AB] [37567FBF]   CRC32   
 10   71.0 [05008DC8] [52186637]   CRC32   
 11   84.5 [A38CE375] [EBE8493C]   CRC32   
 12  100.0 [873E4942] [4E360A39]   CRC32   
 13   99.3 [5BBE5C01] [625EFF37]   CRC32   
 14   83.0 [3C79AB83] [9F50315B]   CRC32   
 15   81.6 [8569F79C] [50177AB5]   CRC32   
 16   91.9 [A55E1892] [A7F1CE6E]   CRC32   
 17   92.5 [83DFA0BD] [B7509478]   CRC32   
 18   81.7 [33C596FC] [E1A9272F]   CRC32   
 19   78.5 [0315785E] [5BCDEE94]   CRC32   
 20  100.0 [58AEF418] [6A43F19B]   CRC32   



Create a new paste based on this one


Comments: