[ create a new paste ] login | about

Link: http://codepad.org/2BD32RhU    [ raw code | fork ]

Plain Text, pasted on Mar 14:
Exact Audio Copy V1.1 from 23. June 2015

EAC extraction logfile from 24. February 2016, 21:02

Grateful Dead / Fare Thee Well 7-4-15 (CD1)

Used drive  : PIONEER BD-RW   BDR-XD04   Adapter: 1  ID: 0

Read mode               : Secure
Utilize accurate stream : Yes
Defeat audio cache      : Yes
Make use of C2 pointers : No

Read offset correction                      : 667
Overread into Lead-In and Lead-Out          : No
Fill up missing offset samples with silence : Yes
Delete leading and trailing silent blocks   : No
Null samples used in CRC calculations       : Yes
Used interface                              : Native Win32 interface for Win NT & 2000

Used output format              : User Defined Encoder
Selected bitrate                : 768 kBit/s
Quality                         : High
Add ID3 tag                     : No
Command line compressor         : C:\Program Files (x86)\Exact Audio Copy\Wavpack\wavpack.exe
Additional command line options : -hm -w "Year=%year%" -w "Genre=%genre%" %source% %dest%


TOC of the extracted CD

     Track |   Start  |  Length  | Start sector | End sector 
    ---------------------------------------------------------
        1  |  0:00.00 | 15:43.13 |         0    |    70737   
        2  | 15:43.13 |  8:29.73 |     70738    |   108985   
        3  | 24:13.11 |  8:36.17 |    108986    |   147702   
        4  | 32:49.28 |  4:12.34 |    147703    |   166636   
        5  | 37:01.62 |  9:34.71 |    166637    |   209757   
        6  | 46:36.58 |  7:02.14 |    209758    |   241421   
        7  | 53:38.72 |  9:58.47 |    241422    |   286318   
        8  | 63:37.44 |  7:38.38 |    286319    |   320706   
        9  | 71:16.07 |  7:49.52 |    320707    |   355933   


Range status and errors

Selected range

     Filename D:\_NL+_\_CD\Grateful Dead - Fare Thee Well 7-4-15 (CD1).wav

     Peak level 97.7 %
     Extraction speed 1.7 X
     Range quality 100.0 %
     Test CRC D4926FD4
     Copy CRC D4926FD4
     Copy OK

No errors occurred

 
AccurateRip summary
 
Track  1  not present in database
Track  2  not present in database
Track  3  not present in database
Track  4  not present in database
Track  5  not present in database
Track  6  not present in database
Track  7  not present in database
Track  8  not present in database
Track  9  not present in database
 
None of the tracks are present in the AccurateRip database

End of status report

---- CUETools DB Plugin V2.1.6

[CTDB TOCID: vi31PSq7QyiKG5leqFqli.3pcQ8-] found
Submit result: vi31PSq7QyiKG5leqFqli.3pcQ8- has been confirmed
Track | CTDB Status
  1   | (20/20) Accurately ripped
  2   | (20/20) Accurately ripped
  3   | (20/20) Accurately ripped
  4   | (20/20) Accurately ripped
  5   | (20/20) Accurately ripped
  6   | (20/20) Accurately ripped
  7   | (20/20) Accurately ripped
  8   | (20/20) Accurately ripped
  9   | (19/20) Accurately ripped


==== Log checksum 611123CC2DDF4CE3AB9BAD1DBC9888FB499A1EE5A0CFE89EF2F8E9793F651490 ====



Create a new paste based on this one


Comments: