[ create a new paste ] login | about

Link: http://codepad.org/2BU5pfTN    [ raw code | fork ]

Plain Text, pasted on Apr 25:
foobar2000 1.4.1 / Dynamic Range Meter 1.1.1
log date: 2019-04-25 11:23:41

--------------------------------------------------------------------------------
Analyzed: "Papa" John DeFrancesco / Funky Organ  -- B-3 Jazz Grooves
--------------------------------------------------------------------------------

DR         Peak         RMS     Duration Track
--------------------------------------------------------------------------------
DR13      -5.06 dB   -19.94 dB      6:35 02-Cold Duck Time
DR11      -6.13 dB   -18.77 dB      7:54 07-160 Million Dollar Chinese Man
--------------------------------------------------------------------------------

Number of tracks:  2
Official DR value: DR12

Samplerate:        2822400 Hz / PCM Samplerate: 176400 Hz
Channels:          2
Bits per sample:   1
Bitrate:           5645 kbps
Codec:             DSD64
================================================================================

--------------------------------------------------------------------------------
Statistics for: 05-That Dirty Thang
Number of samples: 1029235200
Duration: 6:05 
--------------------------------------------------------------------------------

                 Left              Right

Peak Value:     -6.15 dB   ---     -5.95 dB   
Avg RMS:       -19.94 dB   ---    -20.10 dB   
DR channel:     11.83 dB   ---     12.07 dB   
--------------------------------------------------------------------------------

Official DR Value: DR12

Samplerate:        2822400 Hz / PCM Samplerate: 176400 Hz
Channels:          2
Bits per sample:   1
Bitrate:           5645 kbps
Codec:             DSD64
================================================================================
--------------------------------------------------------------------------------
Analyzed: Charles Earland / Funky Organ  -- B-3 Jazz Grooves
--------------------------------------------------------------------------------

DR         Peak         RMS     Duration Track
--------------------------------------------------------------------------------
DR10      -6.19 dB   -18.05 dB      7:31 04-My Blues Is Funky
DR11      -5.77 dB   -19.07 dB      7:39 10-Put It Where You Want It
--------------------------------------------------------------------------------

Number of tracks:  2
Official DR value: DR10

Samplerate:        2822400 Hz / PCM Samplerate: 176400 Hz
Channels:          2
Bits per sample:   1
Bitrate:           5645 kbps
Codec:             DSD64
================================================================================

--------------------------------------------------------------------------------
Analyzed: Joey DeFrancesco / Funky Organ  -- B-3 Jazz Grooves
--------------------------------------------------------------------------------

DR         Peak         RMS     Duration Track
--------------------------------------------------------------------------------
DR10      -5.99 dB   -16.95 dB      4:54 01-The Cat
DR10      -6.00 dB   -17.29 dB      5:45 09-The Preacher
--------------------------------------------------------------------------------

Number of tracks:  2
Official DR value: DR10

Samplerate:        2822400 Hz / PCM Samplerate: 176400 Hz
Channels:          2
Bits per sample:   1
Bitrate:           5645 kbps
Codec:             DSD64
================================================================================

--------------------------------------------------------------------------------
Analyzed: Mike LeDonne / Funky Organ  -- B-3 Jazz Grooves
--------------------------------------------------------------------------------

DR         Peak         RMS     Duration Track
--------------------------------------------------------------------------------
DR11      -6.06 dB   -18.69 dB      6:43 03-Delilah
DR10      -5.31 dB   -18.43 dB      5:00 08-In The Bag
--------------------------------------------------------------------------------

Number of tracks:  2
Official DR value: DR10

Samplerate:        2822400 Hz / PCM Samplerate: 176400 Hz
Channels:          2
Bits per sample:   1
Bitrate:           5645 kbps
Codec:             DSD64
================================================================================

--------------------------------------------------------------------------------
Statistics for: 06-Watch Me Fly
Number of samples: 745565184
Duration: 4:24 
--------------------------------------------------------------------------------

                 Left              Right

Peak Value:     -7.26 dB   ---     -7.71 dB   
Avg RMS:       -17.70 dB   ---    -17.68 dB   
DR channel:      8.79 dB   ---      8.67 dB   
--------------------------------------------------------------------------------

Official DR Value: DR9

Samplerate:        2822400 Hz / PCM Samplerate: 176400 Hz
Channels:          2
Bits per sample:   1
Bitrate:           5645 kbps
Codec:             DSD64
================================================================================



Create a new paste based on this one


Comments: