[ create a new paste ] login | about

Link: http://codepad.org/2ByMybyt    [ raw code | fork ]

Plain Text, pasted on Mar 11:
Exact Audio Copy V1.1 from 23. June 2015

EAC extraction logfile from 22. January 2017, 8:40

The Band / The Last Waltz CD4

Used drive  : PLEXTOR BD-R  PX-B950SA   Adapter: 1  ID: 1

Read mode               : Secure
Utilize accurate stream : Yes
Defeat audio cache      : Yes
Make use of C2 pointers : No

Read offset correction                      : 6
Overread into Lead-In and Lead-Out          : No
Fill up missing offset samples with silence : Yes
Delete leading and trailing silent blocks   : No
Null samples used in CRC calculations       : Yes
Used interface                              : Native Win32 interface for Win NT & 2000

Used output format : Internal WAV Routines
Sample format      : 44.100 Hz; 16 Bit; Stereo


TOC of the extracted CD

     Track |   Start  |  Length  | Start sector | End sector 
    ---------------------------------------------------------
        1  |  0:00.00 |  3:32.50 |         0    |    15949   
        2  |  3:32.50 |  3:10.17 |     15950    |    30216   
        3  |  6:42.67 |  3:20.18 |     30217    |    45234   
        4  | 10:03.10 |  4:35.60 |     45235    |    65919   
        5  | 14:38.70 |  1:32.12 |     65920    |    72831   
        6  | 16:11.07 |  3:26.63 |     72832    |    88344   
        7  | 19:37.70 |  3:52.00 |     88345    |   105744   
        8  | 23:29.70 |  3:52.40 |    105745    |   123184   
        9  | 27:22.35 |  6:30.37 |    123185    |   152471   
       10  | 33:52.72 |  5:24.65 |    152472    |   176836   
       11  | 39:17.62 |  3:52.38 |    176837    |   194274   
       12  | 43:10.25 |  5:30.72 |    194275    |   219096   
       13  | 48:41.22 |  0:50.03 |    219097    |   222849   
       14  | 49:31.25 |  3:34.65 |    222850    |   238964   


Range status and errors

Selected range

     Filename C:\The Band\1978 The Last Waltz (4CD + Blu-ray Box Set Rhino Records 2016)\CD4\The Band - The Last Waltz CD4.wav

     Peak level 100.0 %
     Extraction speed 6.9 X
     Range quality 99.9 %
     Test CRC 6414BC29
     Copy CRC 6414BC29
     Copy OK

No errors occurred

 
AccurateRip summary
 
Track  1  accurately ripped (confidence 2)  [B389DEE3]  (AR v2)
Track  2  accurately ripped (confidence 2)  [76093B49]  (AR v2)
Track  3  accurately ripped (confidence 2)  [005141D5]  (AR v2)
Track  4  accurately ripped (confidence 2)  [1AC82636]  (AR v2)
Track  5  accurately ripped (confidence 2)  [332FF64D]  (AR v2)
Track  6  accurately ripped (confidence 2)  [77E0512B]  (AR v2)
Track  7  accurately ripped (confidence 2)  [86088798]  (AR v2)
Track  8  accurately ripped (confidence 2)  [13B8D8D8]  (AR v2)
Track  9  accurately ripped (confidence 2)  [1B22E6D3]  (AR v2)
Track 10  accurately ripped (confidence 2)  [50CA0070]  (AR v2)
Track 11  accurately ripped (confidence 2)  [FB4A52AD]  (AR v2)
Track 12  accurately ripped (confidence 2)  [14F3A422]  (AR v2)
Track 13  accurately ripped (confidence 2)  [CDD15EEA]  (AR v2)
Track 14  accurately ripped (confidence 2)  [F728501A]  (AR v2)
 
All tracks accurately ripped

End of status report

---- CUETools DB Plugin V2.1.6

[CTDB TOCID: 3BVFcl8XkamyJEg.Mukp4M3R_b8-] found
Submit result: 3BVFcl8XkamyJEg.Mukp4M3R_b8- has been confirmed
Track | CTDB Status
  1   | (75/75) Accurately ripped
  2   | (75/75) Accurately ripped
  3   | (75/75) Accurately ripped
  4   | (74/75) Accurately ripped
  5   | (75/75) Accurately ripped
  6   | (74/75) Accurately ripped
  7   | (75/75) Accurately ripped
  8   | (75/75) Accurately ripped
  9   | (74/75) Accurately ripped
 10   | (75/75) Accurately ripped
 11   | (74/75) Accurately ripped
 12   | (74/75) Accurately ripped
 13   | (74/75) Accurately ripped
 14   | (75/75) Accurately ripped


==== Log checksum A6D3C8B75F6E6BC29032FE8B62E7CED2FC3D1ECE51698CAABC7EA96B08A59800 ====



Create a new paste based on this one


Comments: