[ create a new paste ] login | about

Link: http://codepad.org/2CGDTBeQ    [ raw code | fork ]

Plain Text, pasted on Mar 27:
foobar2000 1.3.17 / Dynamic Range Meter 1.1.1
log date: 2018-03-26 21:08:43

--------------------------------------------------------------------------------
Analyzed: Ray Charles / Live In Concert
--------------------------------------------------------------------------------

DR         Peak         RMS     Duration Track
--------------------------------------------------------------------------------
DR12      -3.67 dB   -20.93 dB      0:40 01-Opening
DR13      -0.37 dB   -17.22 dB      3:40 02-Band: Swing A Little Taste
DR13      -2.10 dB   -18.03 dB      6:08 03-I Gotta Woman
DR14      -1.82 dB   -19.10 dB      2:27 04-Margie
DR14      -3.81 dB   -22.45 dB      3:15 05-You Don't Know Me
DR13      -0.01 dB   -17.55 dB      2:58 06-Hide Nor Hair
DR13      -1.71 dB   -18.18 dB      2:41 07-Baby, Don't You Cry
DR15      -2.38 dB   -21.34 dB      6:05 08-Makin' Whoopee
DR13      -2.65 dB   -19.40 dB      3:31 09-Hallelujah I Love Her So
DR12      -2.46 dB   -18.07 dB      3:15 10-Don't Set Me Free
DR12      -3.69 dB   -18.65 dB      4:40 11-What'd I Say
DR14      -5.46 dB   -24.64 dB      1:50 12-Finale
--------------------------------------------------------------------------------

Number of tracks:  12
Official DR value: DR13

Samplerate:        88200 Hz
Channels:          2
Bits per sample:   24
Bitrate:           2407 kbps
Codec:             FLAC
================================================================================




Create a new paste based on this one


Comments: