[ create a new paste ] login | about

Link: http://codepad.org/2CMk1UcY    [ raw code | fork ]

Plain Text, pasted on Dec 14:
Exact Audio Copy V1.0 beta 2 from 29. April 2011

EAC extraction logfile from 23. December 2011, 12:05

The Beach Boys / Merry Christmas

Used drive  : LITE-ON LTR-52327S   Adapter: 0  ID: 1

Read mode               : Secure
Utilize accurate stream : Yes
Defeat audio cache      : Yes
Make use of C2 pointers : No

Read offset correction                      : 6
Overread into Lead-In and Lead-Out          : No
Fill up missing offset samples with silence : Yes
Delete leading and trailing silent blocks   : No
Null samples used in CRC calculations       : Yes
Used interface                              : Native Win32 interface for Win NT & 2000

Used output format : Internal WAV Routines
Sample format      : 44.100 Hz; 16 Bit; Stereo


TOC of the extracted CD

     Track |   Start  |  Length  | Start sector | End sector 
    ---------------------------------------------------------
        1  |  0:00.00 |  2:21.20 |         0    |    10594   
        2  |  2:21.20 |  4:04.20 |     10595    |    28914   
        3  |  6:25.40 |  1:54.70 |     28915    |    37534   
        4  |  8:20.35 |  3:11.05 |     37535    |    51864   
        5  | 11:31.40 |  2:44.45 |     51865    |    64209   
        6  | 14:16.10 |  2:01.12 |     64210    |    73296   
        7  | 16:17.22 |  2:30.03 |     73297    |    84549   
        8  | 18:47.25 |  1:58.52 |     84550    |    93451   
        9  | 20:46.02 |  2:25.30 |     93452    |   104356   


Range status and errors

Selected range

     Filename D:\My Rips\The Beach Boys - Merry Christmas.wav

     Peak level 100.0 %
     Extraction speed 7.5 X
     Range quality 99.9 %
     Test CRC 51AF2AEF
     Copy CRC 51AF2AEF
     Copy OK

No errors occurred

 
AccurateRip summary
 
Track  1  accurately ripped (confidence 21)  [4223AD41]  (AR v1)
Track  2  accurately ripped (confidence 21)  [CA6C4B25]  (AR v1)
Track  3  accurately ripped (confidence 21)  [233C5C13]  (AR v1)
Track  4  accurately ripped (confidence 21)  [2D155DB3]  (AR v1)
Track  5  accurately ripped (confidence 21)  [8AC2FCC3]  (AR v1)
Track  6  accurately ripped (confidence 21)  [28985ED6]  (AR v1)
Track  7  accurately ripped (confidence 20)  [523209D0]  (AR v1)
Track  8  accurately ripped (confidence 21)  [B50F1D99]  (AR v1)
Track  9  accurately ripped (confidence 21)  [3553D64F]  (AR v1)
 
All tracks accurately ripped

End of status report

==== Log checksum 58F60A037BD21748BA4C4A8ACAE14928235D0837807EFAA82F12D27F9DF551B1 ====



Create a new paste based on this one


Comments: