[ create a new paste ] login | about

Link: http://codepad.org/2E0VthL6    [ raw code | fork ]

Plain Text, pasted on Apr 25:
foobar2000 1.3.14 / Dynamic Range Meter 1.1.1
log date: 2017-04-25 12:27:13

--------------------------------------------------------------------------------
Analyzed: The Byrds / The Notorious Byrd Brothers
--------------------------------------------------------------------------------

DR         Peak         RMS     Duration Track
--------------------------------------------------------------------------------
DR10      -4.99 dB   -16.84 dB      2:19 01-Artificial Energy
DR10      -4.88 dB   -18.13 dB      3:23 02-Goin' Back
DR9       -4.95 dB   -17.12 dB      2:16 03-Natural Harmony 
DR12      -4.59 dB   -19.15 dB      2:35 04-Draft Morning
DR10      -4.77 dB   -16.56 dB      2:03 05-Wasn't Born To Follow
DR10      -4.64 dB   -17.43 dB      2:40 06-Get To You 
DR9       -5.75 dB   -16.34 dB      3:22 07-Change Is Now 
DR11      -4.73 dB   -18.31 dB      1:50 08-Old John Robertson
DR10      -4.63 dB   -17.02 dB      2:06 09-Tribal Gathering
DR10      -4.71 dB   -17.73 dB      2:03 10-Dolphin's Smile
DR9       -4.45 dB   -16.14 dB      3:55 11-Space Odyssey
DR12      -5.91 dB   -19.92 dB      3:24 12-Moog Raga (instrumental)
DR12      -4.87 dB   -18.43 dB      2:08 13-Bound To Fall (instrumental)
DR9       -5.98 dB   -18.09 dB      3:29 14-Triad
DR12      -5.12 dB   -18.86 dB      3:55 15-Goin' Back (alt. version)
DR11      -4.79 dB   -17.65 dB      2:55 16-Draft Morning (alt. version)
DR12      -4.89 dB   -22.17 dB     13:44 17-Universal Mind Decoder (instrumental)
--------------------------------------------------------------------------------

Number of tracks:  17
Official DR value: DR10

Samplerate:        2822400 Hz / PCM Samplerate: 88200 Hz
Channels:          2
Bits per sample:   1
Bitrate:           5645 kbps
Codec:             DSD64
================================================================================




Create a new paste based on this one


Comments: