[ create a new paste ] login | about

Link: http://codepad.org/2Gs6YFzc    [ raw code | fork ]

Plain Text, pasted on Aug 3:
foobar2000 1.3.17 / Dynamic Range Meter 1.1.1
log date: 2018-08-03 11:44:34

--------------------------------------------------------------------------------
Analyzed: Janet Feder / Songs With Words
--------------------------------------------------------------------------------

DR         Peak         RMS     Duration Track
--------------------------------------------------------------------------------
DR14      -4.03 dB   -29.45 dB      5:19 01-Heater
DR17      -2.32 dB   -27.46 dB      4:44 02-Your Country Is Like A Wall
DR10     -10.92 dB   -32.42 dB      3:29 03-My Blackest Crow
DR11      -2.99 dB   -27.85 dB      3:59 04-A Thousand Million Petty Tyrants
DR8       -2.61 dB   -26.66 dB      4:41 05-Blowin' In The Wind
DR14      -4.01 dB   -27.54 dB      3:42 06-O The Sky Falling Moment
DR11      -0.32 dB   -28.74 dB      7:03 07-Plan To Live
DR7       -8.72 dB   -30.38 dB      3:46 08-White Men Landing
DR13      -0.01 dB   -30.06 dB      3:20 09-Trees Are Burning
DR11     -14.96 dB   -37.85 dB      3:55 10-Ocean Wall
--------------------------------------------------------------------------------

Number of tracks:  10
Official DR value: DR12

Samplerate:        88200 Hz
Channels:          6
Bits per sample:   24
Bitrate:           5461 kbps
Codec:             FLAC
================================================================================




Create a new paste based on this one


Comments: