[ create a new paste ] login | about

Link: http://codepad.org/2OO5FwDw    [ raw code | fork ]

Plain Text, pasted on Dec 15:
Exact Audio Copy V1.0 beta 3 from 29. August 2011

EAC extraction logfile from 28. November 2011, 14:55

The Who / Quadrophenia CD4

Used drive  : HL-DT-STDVDRAM GSA-H60N   Adapter: 2  ID: 0

Read mode               : Secure
Utilize accurate stream : Yes
Defeat audio cache      : Yes
Make use of C2 pointers : No

Read offset correction                      : 667
Overread into Lead-In and Lead-Out          : No
Fill up missing offset samples with silence : Yes
Delete leading and trailing silent blocks   : No
Null samples used in CRC calculations       : Yes
Used interface                              : Native Win32 interface for Win NT & 2000

Used output format : Internal WAV Routines
Sample format      : 44.100 Hz; 16 Bit; Stereo


TOC of the extracted CD

     Track |   Start  |  Length  | Start sector | End sector 
    ---------------------------------------------------------
        1  |  0:00.00 |  4:12.64 |         0    |    18963   
        2  |  4:12.64 |  3:21.68 |     18964    |    34106   
        3  |  7:34.57 |  6:23.26 |     34107    |    62857   
        4  | 13:58.08 |  1:31.45 |     62858    |    69727   
        5  | 15:29.53 |  3:10.51 |     69728    |    84028   
        6  | 18:40.29 |  4:14.34 |     84029    |   103112   
        7  | 22:54.63 |  4:15.25 |    103113    |   122262   
        8  | 27:10.13 |  4:39.23 |    122263    |   143210   
        9  | 31:49.36 |  5:03.64 |    143211    |   165999   
       10  | 36:53.25 |  7:29.73 |    166000    |   199747   
       11  | 44:23.23 |  7:59.46 |    199748    |   235718   
       12  | 52:22.69 |  5:11.44 |    235719    |   259087   


Range status and errors

Selected range

     Filename C:\Documents and Settings\Admin\2011 Quadrophenia (4SHM-CD + DVD-A + 7'' Single Box Set Universal Music Japan 2011)\CD4\The Who - Quadrophenia CD4.wav

     Peak level 99.9 %
     Extraction speed 2.0 X
     Range quality 100.0 %
     Test CRC A371D0E9
     Copy CRC A371D0E9
     Copy OK

No errors occurred

 
AccurateRip summary
 
Track  1  accurately ripped (confidence 1)  [30860B97]  (AR v2)
Track  2  accurately ripped (confidence 1)  [6CBD0214]  (AR v2)
Track  3  accurately ripped (confidence 1)  [3B03F39E]  (AR v2)
Track  4  accurately ripped (confidence 1)  [08E54149]  (AR v2)
Track  5  accurately ripped (confidence 1)  [F5064BD6]  (AR v2)
Track  6  accurately ripped (confidence 1)  [DF272880]  (AR v2)
Track  7  accurately ripped (confidence 1)  [EE28CFD2]  (AR v2)
Track  8  accurately ripped (confidence 1)  [9D9BB09D]  (AR v2)
Track  9  accurately ripped (confidence 1)  [0DD3DD2D]  (AR v2)
Track 10  accurately ripped (confidence 1)  [5A4D1604]  (AR v2)
Track 11  accurately ripped (confidence 1)  [8805027F]  (AR v2)
Track 12  accurately ripped (confidence 1)  [85B73203]  (AR v2)
 
All tracks accurately ripped

End of status report

==== Log checksum D2DB8B5D9F70BD9FA37C6E7AED34EBD7D543ACE4C7A4C93BF491C67670623500 ====



Create a new paste based on this one


Comments: