[ create a new paste ] login | about

Link: http://codepad.org/2Q9oB24Q    [ raw code | fork ]

Plain Text, pasted on Jul 14:
foobar2000 1.3.17 / Dynamic Range Meter 1.1.1
log date: 2018-07-14 08:42:29

--------------------------------------------------------------------------------
Analyzed: Spirit / Spirit
--------------------------------------------------------------------------------

DR         Peak         RMS     Duration Track
--------------------------------------------------------------------------------
DR11      -0.03 dB   -14.90 dB      3:13 01-Fresh-Garbage
DR11      -1.04 dB   -14.42 dB      2:45 02-Uncle Jack
DR11      -0.15 dB   -16.75 dB      5:17 03-Mechanical World
DR11      -2.19 dB   -19.33 dB      2:38 04-Taurus
DR11      -2.22 dB   -16.55 dB      3:18 05-Girl in Your Eye
DR11      -0.18 dB   -15.18 dB      2:52 06-Straight Arrow
DR12      -0.17 dB   -16.38 dB      3:38 07-Topanga Windows
DR12      -0.17 dB   -16.57 dB      3:50 08-Gramophone Man
DR10      -3.48 dB   -19.70 dB      2:11 09-Water Woman
DR11      -0.19 dB   -14.84 dB      2:48 10-The Great Canyon Fire in General
DR15      -0.03 dB   -18.32 dB     10:49 11-Elijah
DR13      -0.34 dB   -17.21 dB      3:06 12-Veruska
DR14      -0.20 dB   -20.50 dB      4:31 13-Free Spirit
DR13      -2.83 dB   -20.25 dB      3:14 14-If I Had a Woman
DR14      -1.12 dB   -19.00 dB      9:44 15-Elijah (alternate take)
--------------------------------------------------------------------------------

Number of tracks:  15
Official DR value: DR12

Samplerate:        44100 Hz
Channels:          2
Bits per sample:   16
Bitrate:           742 kbps
Codec:             FLAC
================================================================================




Create a new paste based on this one


Comments: