[ create a new paste ] login | about

Link: http://codepad.org/2RRJcWbR    [ raw code | fork ]

Plain Text, pasted on Apr 24:
Exact Audio Copy V0.99 prebeta 5 from 4. May 2009

EAC extraction logfile from 20. February 2011, 0:14

Little Richard / The Specialty Sessions 6CD. CD6

Used drive  : PLEXTOR CD-R   PREMIUM   Adapter: 0  ID: 1

Read mode               : Secure
Utilize accurate stream : Yes
Defeat audio cache      : Yes
Make use of C2 pointers : No

Read offset correction                      : 30
Overread into Lead-In and Lead-Out          : No
Fill up missing offset samples with silence : Yes
Delete leading and trailing silent blocks   : No
Null samples used in CRC calculations       : Yes
Used interface                              : Installed external ASPI interface

Used output format              : User Defined Encoder
Selected bitrate                : 768 kBit/s
Quality                         : High
Add ID3 tag                     : No
Command line compressor         : D:\Program Files\Exact Audio Copy\FLAC\FLAC.EXE
Additional command line options : -8 -V -T "ARTIST=%a" -T "TITLE=%t" -T "ALBUM=%g" -T "DATE=%y" -T "TRACKNUMBER=%n" -T "GENRE=%m" -T "COMMENT=EAC FLAC -8" %s


TOC of the extracted CD

     Track |   Start  |  Length  | Start sector | End sector 
    ---------------------------------------------------------
        1  |  0:00.33 |  2:50.70 |        33    |    12852   
        2  |  2:51.28 |  2:17.45 |     12853    |    23172   
        3  |  5:08.73 |  2:37.07 |     23173    |    34954   
        4  |  7:46.05 |  2:19.23 |     34955    |    45402   
        5  | 10:05.28 |  2:24.27 |     45403    |    56229   
        6  | 12:29.55 |  3:02.15 |     56230    |    69894   
        7  | 15:31.70 |  2:43.53 |     69895    |    82172   
        8  | 18:15.48 |  3:24.02 |     82173    |    97474   
        9  | 21:39.50 |  2:52.45 |     97475    |   110419   
       10  | 24:32.20 |  0:59.28 |    110420    |   114872   
       11  | 25:31.48 |  2:55.00 |    114873    |   127997   
       12  | 28:26.48 |  2:30.52 |    127998    |   139299   
       13  | 30:57.25 |  3:11.08 |    139300    |   153632   


Range status and errors

Selected range

     Filename I:\Little Richard - 6CD\cd6\Little Richard - The Specialty Sessions 6CD. CD6.wav

     Peak level 91.4 %
     Range quality 100.0 %
     Test CRC 2030A04E
     Copy CRC 2030A04E
     Copy OK

No errors occurred

 
AccurateRip summary
 
Track  1  accurately ripped (confidence 4)  [4BF3CEA0]
Track  2  accurately ripped (confidence 4)  [2077DCF1]
Track  3  accurately ripped (confidence 4)  [55678C65]
Track  4  accurately ripped (confidence 4)  [850AD61F]
Track  5  accurately ripped (confidence 4)  [E2EE7777]
Track  6  accurately ripped (confidence 4)  [962CA5C6]
Track  7  accurately ripped (confidence 4)  [F5473C1B]
Track  8  accurately ripped (confidence 4)  [427A1C97]
Track  9  accurately ripped (confidence 4)  [B2243A66]
Track 10  accurately ripped (confidence 4)  [90A64B88]
Track 11  accurately ripped (confidence 4)  [5A638388]
Track 12  accurately ripped (confidence 4)  [F5619BB5]
Track 13  accurately ripped (confidence 4)  [745DBF53]
 
All tracks accurately ripped

End of status report



Create a new paste based on this one


Comments: