[ create a new paste ] login | about

Link: http://codepad.org/2RaIdhKI    [ raw code | fork ]

Plain Text, pasted on Aug 13:
foobar2000 1.4.4 / Dynamic Range Meter 1.1.1
log date: 2019-08-13 10:41:27

--------------------------------------------------------------------------------
Analyzed: The Who / The Who Sell Out
--------------------------------------------------------------------------------

DR         Peak         RMS     Duration Track
--------------------------------------------------------------------------------
DR10       0.00 dB   -12.31 dB      3:50 01-Armenia City In The Sky (Stereo Version)
DR11      -0.02 dB   -15.07 dB      1:01 02-Heinz Baked Beans (Stereo Version)
DR11       0.00 dB   -12.99 dB      2:34 03-Mary Anne With The Shaky Hand (Acoustic Stereo Version)
DR12       0.00 dB   -13.82 dB      2:35 04-Odorono (Incl. Radio London 'Smooth Sailing' Jingle / Stereo Version)
DR10      -0.01 dB   -12.68 dB      2:54 05-Tattoo (Stereo Version)
DR11       0.00 dB   -13.11 dB      3:25 06-Our Love Was (Stereo Version)
DR10       0.00 dB   -11.47 dB      4:11 07-I Can See For Miles (Stereo Version)
DR11       0.00 dB   -13.25 dB      3:31 08-I Can't Reach You (Stereo Version)
DR12       0.00 dB   -14.26 dB      0:57 09-Medac (Stereo Version)
DR10       0.00 dB   -12.00 dB      2:42 10-Relax (Stereo Version)
DR11       0.00 dB   -13.47 dB      3:08 11-Silas Stingy (Stereo Version)
DR11      -2.23 dB   -16.95 dB      3:05 12-Sunrise (Stereo Version)
DR11       0.00 dB   -12.83 dB      5:54 13-Rael (Pt. 1 & 2)
DR11      -2.14 dB   -16.69 dB      1:38 14-Rael - Naive (Stereo Version)
DR11       0.00 dB   -12.41 dB      2:33 15-Someone's Coming (Stereo Version)
DR11       0.00 dB   -12.57 dB      2:59 16-Early Morning Cold Taxi (Stereo Version)
DR11       0.00 dB   -11.97 dB      2:55 17-Jaguar (Stereo Version)
DR11       0.00 dB   -12.56 dB      1:06 18-Coke After Coke (Stereo Version)
DR8       -0.34 dB   -10.15 dB      3:04 19-Glittering Girl (Stereo Version)
DR9        0.00 dB   -10.54 dB      2:37 20-Summertime Blues (Stereo Version)
DR15      -1.17 dB   -21.01 dB      0:40 21-John Mason Cars (Stereo Version)
DR11       0.00 dB   -12.46 dB      2:51 22-Girl's Eyes (Stereo Version)
DR11       0.00 dB   -12.90 dB      2:50 23-Sodding About (Stereo Version)
DR11      -0.56 dB   -13.90 dB      0:45 24-Premier Drums (Full Version / Stereo Version)
DR13       0.00 dB   -14.23 dB      2:45 25-Odorono (Stereo Version)
DR12       0.00 dB   -12.54 dB      3:27 26-Mary Anne With The Shaky Hand (Mirasound Version)
DR12       0.00 dB   -13.89 dB      0:30 27-Things Go Better With Coke (Stereo Version)
DR11       0.00 dB   -11.97 dB      4:27 28-In The Hall Of The Mountain King (Stereo Version)
DR10       0.00 dB   -11.79 dB      0:51 29-Top Gear (Stereo Version)
DR11       0.00 dB   -12.08 dB      6:08 30-Rael (Pt. 1 & 2/ Remake Stereo Version)
--------------------------------------------------------------------------------

Number of tracks:  30
Official DR value: DR11

Samplerate:        96000 Hz
Channels:          2
Bits per sample:   24
Bitrate:           3123 kbps
Codec:             FLAC
================================================================================




Create a new paste based on this one


Comments: