[ create a new paste ] login | about

Link: http://codepad.org/2UU6Nl84    [ raw code | fork ]

Plain Text, pasted on Sep 13:
foobar2000 1.3.17 / Dynamic Range Meter 1.1.1
log date: 2018-09-12 12:11:13

--------------------------------------------------------------------------------
Analyzed: R.E.M. / Document
--------------------------------------------------------------------------------

DR         Peak         RMS     Duration Track
--------------------------------------------------------------------------------
DR9       -0.10 dB   -10.61 dB      3:49 01-Finest Worksong
DR11      -0.10 dB   -11.83 dB      2:49 02-Welcome To The Occupation
DR11      -0.10 dB   -12.56 dB      3:21 03-Exhuming McCarthy
DR10      -0.10 dB   -11.33 dB      3:34 04-Disturbance At The Heron House
DR10      -0.10 dB   -11.11 dB      2:33 05-Strange
DR10      -0.10 dB   -11.34 dB      4:07 06-It's The End Of The World As We Know It (And I Feel Fine)
DR9       -0.10 dB   -11.15 dB      3:18 07-The One I Love
DR11      -0.10 dB   -12.79 dB      3:25 08-Fireplace
DR10      -0.10 dB   -12.06 dB      3:22 09-Lightnin' Hopkins
DR11      -0.10 dB   -13.18 dB      4:11 10-King Of Birds
DR11      -0.10 dB   -13.09 dB      5:22 11-Oddfellows Local 151
--------------------------------------------------------------------------------

Number of tracks:  11
Official DR value: DR10

Samplerate:        192000 Hz
Channels:          2
Bits per sample:   24
Bitrate:           4965 kbps
Codec:             FLAC
================================================================================




Create a new paste based on this one


Comments: