[ create a new paste ] login | about

Link: http://codepad.org/2ZeJHZZy    [ raw code | fork ]

Plain Text, pasted on Apr 24:
Exact Audio Copy V1.3 from 2. September 2016

EAC extraction logfile from 22. April 2018, 8:24

Alex Harvey / Shout - The Essential [Disc 3]

Used drive  : ATAPI   iHAS122   C   Adapter: 1  ID: 0

Read mode               : Secure
Utilize accurate stream : Yes
Defeat audio cache      : Yes
Make use of C2 pointers : No

Read offset correction                      : 6
Overread into Lead-In and Lead-Out          : No
Fill up missing offset samples with silence : Yes
Delete leading and trailing silent blocks   : No
Null samples used in CRC calculations       : Yes
Used interface                              : Native Win32 interface for Win NT & 2000

Used output format : Internal WAV Routines
Sample format      : 44.100 Hz; 16 Bit; Stereo


TOC of the extracted CD

     Track |   Start  |  Length  | Start sector | End sector 
    ---------------------------------------------------------
        1  |  0:00.00 |  4:37.39 |         0    |    20813   
        2  |  4:37.39 |  2:50.52 |     20814    |    33615   
        3  |  7:28.16 |  4:51.72 |     33616    |    55512   
        4  | 12:20.13 |  2:44.69 |     55513    |    67881   
        5  | 15:05.07 |  4:04.39 |     67882    |    86220   
        6  | 19:09.46 |  4:32.50 |     86221    |   106670   
        7  | 23:42.21 |  4:04.48 |    106671    |   125018   
        8  | 27:46.69 |  5:15.44 |    125019    |   148687   
        9  | 33:02.38 |  6:49.47 |    148688    |   179409   
       10  | 39:52.10 |  3:16.19 |    179410    |   194128   
       11  | 43:08.29 |  6:10.27 |    194129    |   221905   
       12  | 49:18.56 |  6:22.35 |    221906    |   250590   
       13  | 55:41.16 |  3:38.29 |    250591    |   266969   
       14  | 59:19.45 |  3:15.11 |    266970    |   281605   
       15  | 62:34.56 |  5:15.63 |    281606    |   305293   
       16  | 67:50.44 |  4:49.46 |    305294    |   327014   
       17  | 72:40.15 |  6:54.18 |    327015    |   358082   


Range status and errors

Selected range

     Filename C:\Desktop\Alex Harvey - Shout - The Essential [Disc 3].wav

     Peak level 100.0 %
     Extraction speed 9.7 X
     Range quality 100.0 %
     Test CRC 8C564400
     Copy CRC 8C564400
     Copy OK

No errors occurred

 
AccurateRip summary
 
Track  1  not present in database
Track  2  not present in database
Track  3  not present in database
Track  4  not present in database
Track  5  not present in database
Track  6  not present in database
Track  7  not present in database
Track  8  not present in database
Track  9  not present in database
Track 10  not present in database
Track 11  not present in database
Track 12  not present in database
Track 13  not present in database
Track 14  not present in database
Track 15  not present in database
Track 16  not present in database
Track 17  not present in database
 
None of the tracks are present in the AccurateRip database

End of status report

---- CUETools DB Plugin V2.1.6

[CTDB TOCID: t4WzGLHdp89GqNCrPrd4fj25iGY-] found
Submit result: t4WzGLHdp89GqNCrPrd4fj25iGY- has been confirmed
Track | CTDB Status
  1   | (1/1) Accurately ripped
  2   | (1/1) Accurately ripped
  3   | (1/1) Accurately ripped
  4   | (1/1) Accurately ripped
  5   | (1/1) Accurately ripped
  6   | (1/1) Accurately ripped
  7   | (1/1) Accurately ripped
  8   | (1/1) Accurately ripped
  9   | (1/1) Accurately ripped
 10   | (1/1) Accurately ripped
 11   | (1/1) Accurately ripped
 12   | (1/1) Accurately ripped
 13   | (1/1) Accurately ripped
 14   | (1/1) Accurately ripped
 15   | (1/1) Accurately ripped
 16   | (1/1) Accurately ripped
 17   | (1/1) Accurately ripped


==== Log checksum D664CD5A0CF1F33AA12F6D38CA9B34EE83DD3C1810421E213E292788D8611EF9 ====



Create a new paste based on this one


Comments: