[ create a new paste ] login | about

Link: http://codepad.org/2cYv1gMA    [ raw code | fork ]

Plain Text, pasted on Aug 2:
[CUETools log; Date: 8/2/2016 11:48:05 AM; Version: 2.1.5]
[CTDB TOCID: U0buXEmkEJDuM8668EO8x99THOs-] found.
Track | CTDB Status
  1   | (2/2) Accurately ripped
  2   | (2/2) Accurately ripped
  3   | (2/2) Accurately ripped
  4   | (2/2) Accurately ripped
  5   | (2/2) Accurately ripped
  6   | (2/2) Accurately ripped
  7   | (2/2) Accurately ripped
  8   | (2/2) Accurately ripped
  9   | (2/2) Accurately ripped
 10   | (2/2) Accurately ripped
 11   | (2/2) Accurately ripped
 12   | (2/2) Accurately ripped
 13   | (2/2) Accurately ripped
 14   | (2/2) Accurately ripped
 15   | (2/2) Accurately ripped
 16   | (2/2) Accurately ripped
 17   | (2/2) Accurately ripped
 18   | (2/2) Accurately ripped
 19   | (2/2) Accurately ripped
 20   | (2/2) Accurately ripped
 21   | (2/2) Accurately ripped
 22   | (2/2) Accurately ripped
[AccurateRip ID: 002fcb34-03003604-3c0e5816] found.
Track   [  CRC   |   V2   ] Status
 01     [da52f99d|a561e1d2] (0+1/2) Accurately ripped
 02     [1222c44e|72fa22f2] (0+1/2) Accurately ripped
 03     [f8356a86|2004960b] (0+1/2) Accurately ripped
 04     [149586db|e5313eca] (0+1/2) Accurately ripped
 05     [6b3c6b7f|30828308] (0+1/2) Accurately ripped
 06     [e6ed4cdb|59fdb8fc] (0+1/2) Accurately ripped
 07     [53a2e4c7|3b7db936] (0+1/2) Accurately ripped
 08     [e27d9eef|184e2677] (0+1/2) Accurately ripped
 09     [81015527|5e16c223] (0+1/2) Accurately ripped
 10     [2f014fb6|f98ed8d6] (0+1/2) Accurately ripped
 11     [412e1883|73fa9349] (0+1/2) Accurately ripped
 12     [b82fba22|79d43ceb] (0+1/2) Accurately ripped
 13     [29af0954|6c6037a2] (0+1/2) Accurately ripped
 14     [75fdb66e|0a60d7e4] (0+1/2) Accurately ripped
 15     [a60e1234|fb99934e] (0+1/2) Accurately ripped
 16     [3d4d33f3|0dce859d] (0+1/2) Accurately ripped
 17     [b8d5be91|d98877b8] (0+1/2) Accurately ripped
 18     [112df82a|a9ba86aa] (0+1/2) Accurately ripped
 19     [1701788a|b73d25bf] (0+1/2) Accurately ripped
 20     [3403fff9|d1593daf] (0+1/2) Accurately ripped
 21     [e9c8c24f|fee18532] (0+1/2) Accurately ripped
 22     [dedbe17d|343c4016] (0+1/2) Accurately ripped

Track Peak [ CRC32  ] [W/O NULL] [  LOG   ]
 --   99.1 [F78E9A1A] [4EECFDE9]   CRC32   
 01   99.0 [45801A20] [14A8DEC2]           
 02   85.0 [D2D30462] [57879E57]           
 03   90.4 [241C5E5D] [36747A93]           
 04   87.3 [47599E1A] [E58F8E64]           
 05   97.1 [EADDD07D] [B12D820A]           
 06   97.1 [C4EFBEAC] [11EED46A]           
 07   88.1 [4BAA52D0] [376658AF]           
 08   98.9 [EB7573DA] [06F6DABE]           
 09   88.2 [DD82C0C4] [E24E30E8]           
 10   98.8 [68840FDA] [FE1799A0]           
 11   88.3 [59B0CD39] [077129CA]           
 12   83.3 [05FE6361] [A32CA20F]           
 13   99.1 [B64B60FD] [1E879803]           
 14   88.2 [EE2186AF] [E6C01555]           
 15   88.3 [5E83CD3E] [954C3FB6]           
 16   99.0 [CFC6947D] [222EC899]           
 17   87.9 [81FB4503] [F47C9F0A]           
 18   98.5 [BE3B25CD] [A3C01987]           
 19   92.8 [81D91B98] [68E9F5D1]           
 20   88.3 [CEB51856] [13D7AAE6]           
 21   97.4 [E27D19BC] [44C3E806]           
 22   99.1 [49BB469A] [FFE94B6B]           



Create a new paste based on this one


Comments: