[ create a new paste ] login | about

Link: http://codepad.org/2fAW0Gci    [ raw code | fork ]

Plain Text, pasted on Sep 11:
foobar2000 1.3.17 / Dynamic Range Meter 1.1.1
log date: 2018-09-10 23:52:02

--------------------------------------------------------------------------------
Analyzed: Roger Waters / Amused To Death
--------------------------------------------------------------------------------

DR         Peak         RMS     Duration Track
--------------------------------------------------------------------------------
DR13     -13.09 dB   -32.41 dB      4:23 01-The Ballad of Bill Hubbard
DR14      -6.26 dB   -25.22 dB      6:00 02-What God Wants, Part I
DR13      -8.00 dB   -28.33 dB      4:15 03-Perfect Sense, Part I
DR12      -6.32 dB   -23.51 dB      2:51 04-Perfect Sense, Part II
DR12      -6.26 dB   -22.86 dB      4:45 05-The Bravery of Being Out of Range
DR13      -6.41 dB   -25.53 dB      4:01 06-Late Home Tonight, Part I
DR12     -10.21 dB   -28.89 dB      2:13 07-Late Home Tonight, Part II
DR14      -6.14 dB   -26.37 dB      5:48 08-Too Much Rope
DR14      -6.64 dB   -26.94 dB      3:39 09-What God Wants, Part II
DR12      -6.32 dB   -24.51 dB      4:08 10-What God Wants, Part III
DR14      -8.74 dB   -28.68 dB      6:07 11-Watching TV
DR14      -6.53 dB   -26.24 dB      6:51 12-Three Wishes
DR15      -6.16 dB   -28.05 dB      8:31 13-It's a Miracle
DR13      -6.34 dB   -26.55 dB      9:10 14-Amused to Death
--------------------------------------------------------------------------------

Number of tracks:  14
Official DR value: DR13

Samplerate:        2822400 Hz / PCM Samplerate: 176400 Hz
Channels:          6
Bits per sample:   1
Bitrate:           16934 kbps
Codec:             DST64
================================================================================

--------------------------------------------------------------------------------
Analyzed: Roger Waters / Amused To Death
--------------------------------------------------------------------------------

DR         Peak         RMS     Duration Track
--------------------------------------------------------------------------------
DR14     -12.76 dB   -31.10 dB      4:20 01-The Ballad of Bill Hubbard
DR12      -6.48 dB   -21.78 dB      6:00 02-What God Wants, Part I
DR12     -10.06 dB   -26.81 dB      4:15 03-Perfect Sense, Part I
DR11      -7.70 dB   -22.88 dB      2:51 04-Perfect Sense, Part II
DR11      -8.27 dB   -21.81 dB      4:45 05-The Bravery of Being Out of Range
DR10      -5.89 dB   -24.84 dB      4:01 06-Late Home Tonight, Part I
DR13     -13.84 dB   -31.15 dB      2:13 07-Late Home Tonight, Part II
DR12      -7.51 dB   -24.93 dB      5:47 08-Too Much Rope
DR12      -8.16 dB   -24.26 dB      3:40 09-What God Wants, Part II
DR12      -7.81 dB   -23.69 dB      4:09 10-What God Wants, Part III
DR13     -12.65 dB   -29.36 dB      6:07 11-Watching TV
DR14      -6.17 dB   -25.86 dB      6:51 12-Three Wishes
DR15      -7.36 dB   -28.28 dB      8:31 13-It's a Miracle
DR13      -6.23 dB   -24.96 dB      9:13 14-Amused to Death
--------------------------------------------------------------------------------

Number of tracks:  14
Official DR value: DR13

Samplerate:        2822400 Hz / PCM Samplerate: 176400 Hz
Channels:          2
Bits per sample:   1
Bitrate:           5645 kbps
Codec:             DST64
================================================================================




Create a new paste based on this one


Comments: