[ create a new paste ] login | about

Link: http://codepad.org/2iSkUiqj    [ raw code | fork ]

Plain Text, pasted on May 11:
foobar2000 1.4.1 / Dynamic Range Meter 1.1.1
log date: 2019-05-11 11:12:04

--------------------------------------------------------------------------------
Analyzed: Whitesnake / Flesh & Blood (Deluxe Edition)
--------------------------------------------------------------------------------

DR         Peak         RMS     Duration Track
--------------------------------------------------------------------------------
DR5       -1.03 dB    -6.51 dB      3:43 01-Good To See You Again
DR5       -1.03 dB    -6.54 dB      3:52 02-Gonna Be Alright
DR5       -1.03 dB    -6.21 dB      3:37 03-Shut Up & Kiss Me
DR5       -1.03 dB    -6.73 dB      5:30 04-Hey You (You Make Me Rock)
DR5       -1.03 dB    -6.71 dB      3:53 05-Always & Forever
DR5       -1.03 dB    -6.84 dB      3:53 06-When I Think of You (Color Me Blue)
DR5       -1.03 dB    -7.17 dB      4:17 07-Trouble Is Your Middle Name
DR5       -1.03 dB    -6.91 dB      5:18 08-Flesh & Blood
DR5       -1.03 dB    -6.72 dB      4:01 09-Well I Never
DR5       -1.03 dB    -6.56 dB      6:43 10-Heart Of Stone
DR5       -1.03 dB    -6.93 dB      4:46 11-Get Up
DR7       -1.03 dB    -9.80 dB      3:47 12-After All
DR5       -1.03 dB    -6.95 dB      6:09 13-Sands Of Time
DR4       -1.03 dB    -6.32 dB      4:59 14-Can't Do Right For Doing Wrong (Bonus Track)
DR5       -1.03 dB    -6.96 dB      4:23 15-If I Can't Have You (Bonus Track)
DR5       -1.03 dB    -6.54 dB      4:12 16-Gonna Be Alright (X-Tendo Mix - Bonus Track)
DR5       -1.03 dB    -6.72 dB      6:21 17-Sands Of Time (Radio Mix - Bonus Track)
DR5       -1.03 dB    -6.35 dB      3:43 18-Shut Up & Kiss Me (Video Mix - Bonus Track)
--------------------------------------------------------------------------------

Number of tracks:  18
Official DR value: DR5

Samplerate:        96000 Hz
Channels:          2
Bits per sample:   24
Bitrate:           3271 kbps
Codec:             FLAC
================================================================================




Create a new paste based on this one


Comments: